Register  ·  Log in
Forgot password?

  • Ангар 10 / Hangar 10 (Дэниэл Симпсон / Daniel Simpson) [2014, Великобритания, ужасы, фантастика, триллер, HDRip] VO (ХиХиДок)

    Reply to topic
    Author Message


    Post 09-Apr-2015 14:00



    Ангар 10 / Hangar 10
    Страна: Великобритания
    Жанр: ужасы, фантастика, триллер
    Год выпуска: 2014
    Продолжительность: 01:27:35
    Перевод: Одноголосый закадровый ХиХиДок , перевод [lgt]
    Cубтитры: нет
    Режиссер: Дэниэл Симпсон / Daniel Simpson
    В ролях: Роберт Кертис-Браун, Эбби Солт, Дэнни Шейлер
    Описание: Через 33 года после печально известного инцидента с НЛО в Рендлшем Форест, трое энтузиастов отправляются на поиски золота в ту же область.

    Качество видео: HDRip
    Формат видео: AVI
    Видео: Xvid 688x368 23.976fps 1051kbps
    Аудио: MP3 48000Hz stereo 128kbps


    Format : AVI
    Format/Info : Audio Video Interleave
    File size : 743 MiB
    Duration : 1h 27mn
    Overall bit rate : 1 186 Kbps
    Recorded date : -1
    Writing application : XviD4PSP 7.0 / 55.48.100
    Comment : MATROSKA,WEBM > AVI / H264 > XVID VBR 1069kbps HQ / AC3 > MP3 CBR 128kbps HQ
    ID : 0
    Format : MPEG-4 Visual
    Format profile : Advanced Simple@L5
    Format settings, BVOP : 1
    Format settings, QPel : No
    Format settings, GMC : No warppoints
    Format settings, Matrix : Default (H.263)
    Codec ID : XVID
    Codec ID/Hint : XviD
    Duration : 1h 27mn
    Bit rate : 1 052 Kbps
    Width : 688 pixels
    Height : 368 pixels
    Display aspect ratio : 1.85:1
    Frame rate : 23.976 fps
    Color space : YUV
    Chroma subsampling : 4:2:0
    Bit depth : 8 bits
    Scan type : Progressive
    Compression mode : Lossy
    Bits/(Pixel*Frame) : 0.173
    Stream size : 655 MiB (88%)
    Writing library : XviD 73
    ID : 1
    Format : MPEG Audio
    Format version : Version 1
    Format profile : Layer 3
    Mode : Joint stereo
    Mode extension : MS Stereo
    Codec ID : 55
    Codec ID/Hint : MP3
    Duration : 1h 27mn
    Bit rate mode : Constant
    Bit rate : 128 Kbps
    Channel(s) : 2 channels
    Sampling rate : 48.0 KHz
    Compression mode : Lossy
    Stream size : 80.2 MiB (11%)
    Alignment : Aligned on interleaves
    Interleave, duration : 24 ms (0.57 video frame)
    Interleave, preload duration : 24 ms
    Writing library : LAME

    Скриншот c названием фильма


    Download .torrent

    Download free and at maximum speed!

    How to Download? · What is a torrent? · Ratings and Limitations

    The site does not extend and does not store electronic(digital) versions of products, and only gives access to a reference catalogue created by users on torrent-files which contain only lists of the hash-sums, the earnest entreaty, with complaints(abuse) to access directly to the user. Files for an exchange on tracker are given by users of a site, and the administration does not bear the responsibility for their maintenance. The request to not fill in the files protected by copyrights, and also files of the illegal maintenance!

    [Profile] [PM]
    Display posts from previous:    
    Reply to topic

    The time now is: Today 13:23

    All times are GMT + 3 Hours

    You cannot post new topics in this forum
    You cannot reply to topics in this forum
    You cannot edit your posts in this forum
    You cannot delete your posts in this forum
    You cannot vote in polls in this forum
    You cannot attach files in this forum
    You cannot download files in this forum