BitTorrentTracker PerecTracker.org
BitTorrentTracker PerecTracker.org
    
Регистрация  ·  Вход
 
 · 
Забыли пароль?

  • Ангар 10 / Hangar 10 (Дэниэл Симпсон / Daniel Simpson) [2014, Великобритания, ужасы, фантастика, триллер, HDRip] VO (ХиХиДок)

    Ответить на тему
     
    Автор Сообщение

    Light

    Создавать темы 09-Апр-2015 13:00

           

    [Цитировать]

    Ангар 10 / Hangar 10
    Страна: Великобритания
    Жанр: ужасы, фантастика, триллер
    Год выпуска: 2014
    Продолжительность: 01:27:35
    Перевод: Одноголосый закадровый ХиХиДок , перевод [lgt]
    Cубтитры: нет
    Режиссер: Дэниэл Симпсон / Daniel Simpson
    В ролях: Роберт Кертис-Браун, Эбби Солт, Дэнни Шейлер
    Описание: Через 33 года после печально известного инцидента с НЛО в Рендлшем Форест, трое энтузиастов отправляются на поиски золота в ту же область.
    Сэмпл:http://sendfile.su/1105946

    Качество видео: HDRip
    Формат видео: AVI
    Видео: Xvid 688x368 23.976fps 1051kbps
    Аудио: MP3 48000Hz stereo 128kbps

    MediaInfo

    Format : AVI
    Format/Info : Audio Video Interleave
    File size : 743 MiB
    Duration : 1h 27mn
    Overall bit rate : 1 186 Kbps
    Recorded date : -1
    Writing application : XviD4PSP 7.0 / 55.48.100
    Comment : MATROSKA,WEBM > AVI / H264 > XVID VBR 1069kbps HQ / AC3 > MP3 CBR 128kbps HQ
    Video
    ID : 0
    Format : MPEG-4 Visual
    Format profile : Advanced Simple@L5
    Format settings, BVOP : 1
    Format settings, QPel : No
    Format settings, GMC : No warppoints
    Format settings, Matrix : Default (H.263)
    Codec ID : XVID
    Codec ID/Hint : XviD
    Duration : 1h 27mn
    Bit rate : 1 052 Kbps
    Width : 688 pixels
    Height : 368 pixels
    Display aspect ratio : 1.85:1
    Frame rate : 23.976 fps
    Color space : YUV
    Chroma subsampling : 4:2:0
    Bit depth : 8 bits
    Scan type : Progressive
    Compression mode : Lossy
    Bits/(Pixel*Frame) : 0.173
    Stream size : 655 MiB (88%)
    Writing library : XviD 73
    Audio
    ID : 1
    Format : MPEG Audio
    Format version : Version 1
    Format profile : Layer 3
    Mode : Joint stereo
    Mode extension : MS Stereo
    Codec ID : 55
    Codec ID/Hint : MP3
    Duration : 1h 27mn
    Bit rate mode : Constant
    Bit rate : 128 Kbps
    Channel(s) : 2 channels
    Sampling rate : 48.0 KHz
    Compression mode : Lossy
    Stream size : 80.2 MiB (11%)
    Alignment : Aligned on interleaves
    Interleave, duration : 24 ms (0.57 video frame)
    Interleave, preload duration : 24 ms
    Writing library : LAME

    Скриншот c названием фильма

    Скриншоты

    Скачать .torrent

    Скачать торрент-файл бесплатно и на максимальной скорости!

    Как скачивать? · Что такое торрент? · Рейтинг и ограничения

    !ВНИМАНИЕ!
    Сайт не распространяет и не хранит электронные версии произведений, а занимается лишь лишь предоставлением доступа к создаваемому пользователями каталогу ссылок на торрент-файлы, которые содержат только списки хеш-сумм, убедительная просьба с жалобами обращаться напрямую к пользователю. Файлы для обмена на трекере предоставлены пользователями сайта, и администрация не несёт ответственности за их содержание. Просьба не заливать файлы, защищенные авторскими правами, а также файлы нелегального содержания!


    _________________
    [Профиль] [ЛС]
    Показать сообщения:    
    Ответить на тему

    Текущее время: Сегодня, в 18:00

    Часовой пояс: GMT + 2



    Вы не можете начинать темы
    Вы не можете отвечать на сообщения
    Вы не можете редактировать свои сообщения
    Вы не можете удалять свои сообщения
    Вы не можете голосовать в опросах
    Вы не можете прикреплять файлы к сообщениям
    Вы не можете скачивать файлы