BitTorrentTracker PerecTracker.org
BitTorrentTracker PerecTracker.org
    
Регистрация  ·  Вход
 
 · 
Забыли пароль?

  • Столетний старик, который вылез в окно и исчез / Hundraåringen som klev ut genom fönstret och försvann (Феликс Хернгрен / Felix Herngren) [2013, Швеция, Хорватия, комедия, BDRip] MVO

    Ответить на тему
     
    Автор Сообщение

    Light

    Создавать темы 09-Апр-2015 00:24

           

    [Цитировать]

    Столетний старик, который вылез в окно и исчез / Hundraåringen som klev ut genom fönstret och försvann
    Год выпуска: 2013
    Страна: Швеция, Хорватия
    Жанр: комедия, приключения
    Продолжительность: 01:54:17
    Перевод: Профессиональный (многоголосый, закадровый)
    Субтитры: нет
    Режиссер: Феликс Хернгрен / Felix Herngren
    В ролях: Роберт Густафссон (Allan Karlsson), Ивар Викландер (Julius), Давид Виберг (Benny), Миа Скярингер (Gunilla), Йенс Хультен (Gäddan), Бианка Крузейро (Caracas), Алан Форд (Pim), Свен Лённ (Hinken), Дэвид Шеклтон (Herbert Einstein), Георг Николофф (Popov), Simon Säppenen (Bulten), Manuel Dubra (Esteban)-Бюджет: SEK 63 000 000
    Мировая премьера: 25 декабря 2013-Описание: В день празднования своего столетия юбиляр вылезает через окно дома престарелых на газон и уходит. Уходит не куда-то, а от чего-то. От бессмысленного доживания в богадельне. В первый же час он ухитряется поссориться с бандитами и уехать в неизвестном направлении. Вскоре становится понятно, что все сто лет его жизни - сплошные приключения. Он, вроде бы, всегда плывет по течению, но почему-то всегда приплывает к любимым занятиям - застольям и разного рода взрывам. Перезнакомившись, при разных юмористических обстоятельствах, с большинством сильных своего времени - Франко, Труменом, Сталиным - и изрядно повлияв на историю двадцатого века, он остается самим собой.-Рейтинг
    : 7.436 (4009)
    : 7.10 (13 795)
    MPAA: R - Лицам до 17 лет обязательно присутствие взрослого
    -Качество: BDRip
    Формат: AVI //SAMPLE//
    Видео: 720x304 (2.37:1), 24 fps, XviD build 66 ~1624 kbps avg, 0.31 bit/pixel
    Аудио: 48 kHz, AC3 Dolby Digital, 2/0 (L,R) ch, ~192 kbps

    MediaInfo

    Общее
    Полное имя : F:\Video\AVI\Films\Stoletnij.Starik.Kotoryj.Vylez.V.Okno.I.Ischez.2013.RUS.BDRip.XviD.AC3.-AllFilms.avi
    Формат : AVI
    Формат/Информация : Audio Video Interleave
    Размер файла : 1,46 Гбайт
    Продолжительность : 1 ч. 54 м.
    Общий поток : 1826 Кбит/сек
    Название фильма : Столетний старик, который вылез в окно и исчез / Hundraaringen som klev ut genom fonstret och forsvann (2013)
    Режиссёр : Shevon (Blu-Ray)
    Программа кодирования : VirtualDubMod 1.5.10.3 | www.virtualdub-fr.org || (build 2550/release)
    Правообладатель : AllFilms(perectracker.org)
    Видео
    Идентификатор : 0
    Формат : MPEG-4 Visual
    Профиль формата : Advanced Simple@L5
    Параметр BVOP формата : 1
    Параметр QPel формата : Нет
    Параметр GMC формата : Без точки перехода
    Параметр матрицы формата : Выборочная
    Идентификатор кодека : XVID
    Идентификатор кодека/Подсказка : XviD
    Продолжительность : 1 ч. 54 м.
    Битрейт : 1625 Кбит/сек
    Ширина : 720 пикселей
    Высота : 304 пикселя
    Соотношение сторон : 2,35:1
    Частота кадров : 24,000 кадра/сек
    Цветовое пространство : YUV
    Субдискретизация насыщенности : 4:2:0
    Битовая глубина : 8 бит
    Тип развёртки : Прогрессивная
    Метод сжатия : С потерями
    Бит/(Пиксели*Кадры) : 0.309
    Размер потока : 1,30 Гбайт (89%)
    Библиотека кодирования : XviD 66
    Аудио
    Идентификатор : 1
    Формат : AC-3
    Формат/Информация : Audio Coding 3
    Расширение режима : CM (complete main)
    Параметр Endianness формата : Big
    Идентификатор кодека : 2000
    Продолжительность : 1 ч. 54 м.
    Вид битрейта : Постоянный
    Битрейт : 192 Кбит/сек
    Каналы : 2 канала
    Расположение каналов : Front: L R
    Частота : 48,0 КГц
    Битовая глубина : 16 бит
    Метод сжатия : С потерями
    Размер потока : 157 Мбайт (11%)
    Выравнивание : Разделение по промежуткам
    Продолжительность промежутка : 42 мс. (1,00 видеокадр)
    Время предзагрузки промежутка : 500 мс.

    Скриншоты


    -
    Скачать .torrent

    Скачать торрент-файл бесплатно и на максимальной скорости!

    Как скачивать? · Что такое торрент? · Рейтинг и ограничения

    !ВНИМАНИЕ!
    Сайт не распространяет и не хранит электронные версии произведений, а занимается лишь лишь предоставлением доступа к создаваемому пользователями каталогу ссылок на торрент-файлы, которые содержат только списки хеш-сумм, убедительная просьба с жалобами обращаться напрямую к пользователю. Файлы для обмена на трекере предоставлены пользователями сайта, и администрация не несёт ответственности за их содержание. Просьба не заливать файлы, защищенные авторскими правами, а также файлы нелегального содержания!


    _________________
    [Профиль] [ЛС]
    Показать сообщения:    
    Ответить на тему

    Текущее время: Сегодня, в 22:21

    Часовой пояс: GMT + 2



    Вы не можете начинать темы
    Вы не можете отвечать на сообщения
    Вы не можете редактировать свои сообщения
    Вы не можете удалять свои сообщения
    Вы не можете голосовать в опросах
    Вы не можете прикреплять файлы к сообщениям
    Вы не можете скачивать файлы