BitTorrentTracker PerecTracker.org
BitTorrentTracker PerecTracker.org
    
Регистрация  ·  Вход
 
 · 
Забыли пароль?

  • Клуб «Грусть» / Tristesse Club (Винсент Мэриетт / Vincent Mariette) [2014, Франция, комедия, DVDRip] sub rus + original fr

    Ответить на тему
     
    Автор Сообщение

    Light

    Создавать темы 09-Апр-2015 00:24

           

    [Цитировать]

    Клуб «Грусть» / ГОРЕ-КЛУБ / Tristesse ClubГод выпуска: 2014
    Страна: Франция
    Жанр: комедия
    Продолжительность: 01:26:10
    Перевод: Субтитры
    Cубтитры: русские (Myfrenchfilmfestival)
    Оригинальная аудиодорожка: французский
    Режиссер: Винсент Мэриетт / Vincent Mariette
    Сценарий: Винсент Мэриетт / Vincent Mariette, Винсент Поймиро / Vincent Poymiro
    Продюсер: Amaury Ovise, Жан-Кристоф Реймонд / Jean-Christophe Reymond
    Оператор: Жюльен Ру / Julien Roux
    Композитор: Робин Кудер / Robin Coudert
    В ролях: Людивин Санье, Лоран Лафитт, Винсент Макен, Ноэми Львовски, Доминик Реймон, Энн Азулай, Филипп Реббо, Делия Эпина-Диэф-Описание: Если вы любитель охоты за сокровищами, если вам нравятся старые Порше, сестры, которые таковыми не являются, отцы, которые в действительности не умерли, озера с их тайнами, то тогда добро пожаловать в клуб «Грусть»!-Рейтинг

    -Качество: DVDRip
    Формат: AVI
    Видео: XviD; 720x304 (2.35:1); 1807 Kbps; 25 fps; 0,330 bpp
    Аудио: AC3; 448 Kbps; CBR; 6 ch; 48.0 KHz-

    MI

    Format : AVI
    Format/Info : Audio Video Interleave
    File size : 1.36 GiB
    Duration : 1h 26mn
    Overall bit rate : 2 265 Kbps
    Writing application : VirtualDubMod 1.5.10.3 | www.virtualdub-fr.org || (build 2550/release)
    Writing library : VirtualDubMod build 2550/release
    Video
    ID : 0
    Format : MPEG-4 Visual
    Format profile : Advanced Simple@L5
    Format settings, BVOP : 1
    Format settings, QPel : No
    Format settings, GMC : No warppoints
    Format settings, Matrix : Default (MPEG)
    Codec ID : XVID
    Codec ID/Hint : XviD
    Duration : 1h 26mn
    Bit rate : 1 808 Kbps
    Width : 720 pixels
    Height : 304 pixels
    Display aspect ratio : 2.35:1
    Frame rate : 25.000 fps
    Color space : YUV
    Chroma subsampling : 4:2:0
    Bit depth : 8 bits
    Scan type : Progressive
    Compression mode : Lossy
    Bits/(Pixel*Frame) : 0.330
    Stream size : 1.09 GiB (80%)
    Writing library : XviD 1.2.1 (UTC 2008-12-04)
    Audio
    ID : 1
    Format : AC-3
    Format/Info : Audio Coding 3
    Mode extension : CM (complete main)
    Format settings, Endianness : Big
    Codec ID : 2000
    Duration : 1h 26mn
    Bit rate mode : Constant
    Bit rate : 448 Kbps
    Channel(s) : 6 channels
    Channel positions : Front: L C R, Side: L R, LFE
    Sampling rate : 48.0 KHz
    Bit depth : 16 bits
    Compression mode : Lossy
    Stream size : 276 MiB (20%)
    Alignment : Split accross interleaves
    Interleave, duration : 40 ms (1.00 video frame)
    Interleave, preload duration : 500 ms

    Пример субтитров

    493
    00:32:46,690 --> 00:32:49,649
    Я единственный раз в жизни
    прошу тебя о чем-то.
    494
    00:32:50,090 --> 00:32:50,769
    Понимаешь?
    495
    00:32:53,930 --> 00:32:55,169
    Я прошу тебя...
    496
    00:32:55,770 --> 00:32:57,489
    выделить для меня этот день
    и выяснить, куда пропал наш отец.
    497
    00:32:57,650 --> 00:33:00,849
    Только один день, чтобы понять,
    сможем ли мы найти его.
    498
    00:33:01,330 --> 00:33:03,849
    Можно, Ты способен на это?
    499
    00:33:05,930 --> 00:33:07,649
    Если мы его найдем,
    что ты ему скажешь?
    500
    00:33:07,730 --> 00:33:09,009
    Не знаю.
    501
    00:33:13,090 --> 00:33:14,329
    А ты?
    502
    00:33:16,410 --> 00:33:17,849
    Скажу, что ненавижу его.
    503
    00:33:21,090 --> 00:33:23,089
    Давай же найдем его и скажем.
    504
    00:33:26,770 --> 00:33:29,009
    Сработало. Я достала адрес.
    505
    00:33:33,010 --> 00:33:35,889
    Ты правда думаешь,
    что Ребекка похоже на имя для шлюхи?
    506
    00:33:36,090 --> 00:33:38,849
    Скорее да. А каким по-твоему
    должно быть имя шлюхи
    507
    00:33:39,250 --> 00:33:40,769
    Даже не знаю.
    508
    00:33:40,930 --> 00:33:42,089
    Клоэ?
    509
    00:33:42,610 --> 00:33:43,729
    Нет-нет!
    510
    00:33:45,170 --> 00:33:46,769
    Клоэ - очень красивое имя.
    511
    00:33:46,930 --> 00:33:48,649
    Спасибо, ты очень любезен.
    512
    00:33:50,650 --> 00:33:52,249
    Что случилось?
    513
    00:33:52,410 --> 00:33:56,009
    Флоранс звонила сказать, что мне
    пришло письмо. Перезвоню ей потом.

    Скриншоты


    Скачать .torrent

    Скачать торрент-файл бесплатно и на максимальной скорости!

    Как скачивать? · Что такое торрент? · Рейтинг и ограничения

    !ВНИМАНИЕ!
    Сайт не распространяет и не хранит электронные версии произведений, а занимается лишь лишь предоставлением доступа к создаваемому пользователями каталогу ссылок на торрент-файлы, которые содержат только списки хеш-сумм, убедительная просьба с жалобами обращаться напрямую к пользователю. Файлы для обмена на трекере предоставлены пользователями сайта, и администрация не несёт ответственности за их содержание. Просьба не заливать файлы, защищенные авторскими правами, а также файлы нелегального содержания!


    _________________
    [Профиль] [ЛС]
    Показать сообщения:    
    Ответить на тему

    Текущее время: Сегодня, в 20:23

    Часовой пояс: GMT + 2



    Вы не можете начинать темы
    Вы не можете отвечать на сообщения
    Вы не можете редактировать свои сообщения
    Вы не можете удалять свои сообщения
    Вы не можете голосовать в опросах
    Вы не можете прикреплять файлы к сообщениям
    Вы не можете скачивать файлы