BitTorrentTracker PerecTracker.org
BitTorrentTracker PerecTracker.org
    
Регистрация  ·  Вход
 
 · 
Забыли пароль?

  • Дикие истории / Wild Stories / Relatos salvajes (Дамиан Сифрон / Damián Szifrón) [2014, Аргентина, Испания, триллер, драма, комедия, BDRip-AVC] Dub (iTunes) + Original Spa

    Ответить на тему
     
    Автор Сообщение

    Light

    Создавать темы 09-Апр-2015 00:24

           

    [Цитировать]

    Дикие истории / Wild Stories / Relatos salvajesСтрана: Аргентина, Испания
    Жанр: триллер, драма, комедия
    Год выпуска: 2014
    Продолжительность: 2:01:59
    Перевод: Профессиональный (дублированный) iTunes
    Cубтитры: нет
    Оригинальная аудиодорожка: испанский
    Режиссер: Дамиан Сифрон / Damián Szifrón
    В ролях: Рикардо Дарин, Оскар Мартинес, Леонардо Сбараглиа, Эрика Ривас, Рита Кортесе, Хульета Сильберберг, Дарио Грандинетти, Мария Онетто, Нэнси Дуплаа, Осмар Нуньес
    Слоган: "В каждом спит зверь. Не буди его"
    Описание: Гэбриела Пастернака обижали многие, с кем сводила его жизнь — девушка, учитель музыки, профессор в консерватории, дантист. И вот все они, на свою беду, оказались вместе с ним в одном самолете… Ночью в придорожной закусочной официантка узнает в посетителе ростовщика, который много лет назад довел до самоубийства ее отца. А у поварихи, в прошлом отсидевшей срок, для мести такому гаду сразу нашлось средство — крысиный яд… Городской красавчик ехал на своей мощной Audi по пустынной дороге и решил обогнать старый Peugeot, но сидевший за рулем провинциальный упырь решил не уступать. И вот уже кровавый итог бессмысленного соперничества не за горами…

    Сэмпл: http://sendfile.su/1105664
    Качество видео: BDRip-AVC [Дикие истории / Wild Stories / Relatos salvajes (2014) Blu-ray Disc -BLUEBIRD]
    Формат видео: MKV
    Видео: AVC, 1136 x 476 (2,40:1), 2525 kbps, 23,976 fps, 0,195 bpp
    Аудио: AC3, 6ch, 48 kHz, 384 kbps, 16 bit
    Аудио 2: AC3, 6ch, 48 kHz, 384 kbps, 16 bit

    MediaInfo

    Уникальный идентификатор : 221611247672676341660639217964929408419 (0xA6B8C61723BD251E9FD65F27329A5DA3)
    Полное имя : F:\Films\Wild_stories\Wild_stories (1).mkv
    Формат : Matroska
    Версия формата : Version 4 / Version 2
    Размер файла : 2,81 Гбайт
    Продолжительность : 2 ч. 1 м.
    Общий поток : 3293 Кбит/сек
    Дата кодирования : UTC 2015-04-08 14:53:20
    Программа кодирования : mkvmerge v7.7.0 ('Six Voices') 64bit built on Feb 28 2015 23:39:33
    Библиотека кодирования : libebml v1.3.1 + libmatroska v1.4.2
    _STATISTICS_WRITING_APP : mkvmerge v7.7.0 ('Six Voices') 64bit built on Feb 28 2015 23:39:33
    _STATISTICS_WRITING_DATE_UTC : 2015-04-08 14:53:20
    _STATISTICS_TAGS : BPS DURATION NUMBER_OF_FRAMES NUMBER_OF_BYTES
    DURATION : 02:01:59.200000000
    NUMBER_OF_FRAMES : 228725
    NUMBER_OF_BYTES : 351321600
    Видео
    Идентификатор : 1
    Формат : AVC
    Формат/Информация : Advanced Video Codec
    Профиль формата : High@L4.1
    Параметр CABAC формата : Да
    Параметр ReFrames формата : 8 кадров
    Идентификатор кодека : V_MPEG4/ISO/AVC
    Продолжительность : 2 ч. 1 м.
    Битрейт : 2525 Кбит/сек
    Ширина : 1136 пикселей
    Высота : 476 пикселей
    Соотношение сторон : 2,40:1
    Соотношение сторон в оригинале : 2,40:1
    Режим частоты кадров : Постоянный
    Частота кадров : 23,976 кадра/сек
    Цветовое пространство : YUV
    Субдискретизация насыщенности : 4:2:0
    Битовая глубина : 8 бит
    Тип развёртки : Прогрессивная
    Бит/(Пиксели*Кадры) : 0.195
    Размер потока : 2,10 Гбайт (75%)
    Библиотека кодирования : x264 core 142 r2431 ac76440
    Настройки программы : cabac=1 / ref=8 / deblock=1:-2:-1 / analyse=0x3:0x133 / me=umh / subme=9 / psy=1 / psy_rd=1.00:0.05 / mixed_ref=0 / me_range=36 / chroma_me=1 / trellis=2 / 8x8dct=1 / cqm=0 / deadzone=21,11 / fast_pskip=0 / chroma_qp_offset=-3 / threads=4 / lookahead_threads=1 / sliced_threads=0 / nr=0 / decimate=0 / interlaced=0 / bluray_compat=0 / constrained_intra=0 / bframes=12 / b_pyramid=2 / b_adapt=2 / b_bias=0 / direct=1 / weightb=1 / open_gop=0 / weightp=2 / keyint=240 / keyint_min=23 / scenecut=40 / intra_refresh=0 / rc=2pass / mbtree=0 / bitrate=2525 / ratetol=1.0 / qcomp=0.70 / qpmin=10 / qpmax=69 / qpstep=4 / cplxblur=20.0 / qblur=0.5 / ip_ratio=1.40 / pb_ratio=1.30 / aq=1:1.00
    Default : Да
    Forced : Нет
    Аудио #1
    Идентификатор : 2
    Формат : AC-3
    Формат/Информация : Audio Coding 3
    Расширение режима : CM (complete main)
    Параметр Endianness формата : Big
    Идентификатор кодека : A_AC3
    Продолжительность : 2 ч. 1 м.
    Вид битрейта : Постоянный
    Битрейт : 384 Кбит/сек
    Каналы : 6 каналов
    Расположение каналов : Front: L C R, Side: L R, LFE
    Частота : 48,0 КГц
    Битовая глубина : 16 бит
    Метод сжатия : С потерями
    Размер потока : 335 Мбайт (12%)
    Заголовок : дубляж iTunes
    Язык : Russian
    Default : Да
    Forced : Нет
    Аудио #2
    Идентификатор : 3
    Формат : AC-3
    Формат/Информация : Audio Coding 3
    Расширение режима : CM (complete main)
    Параметр Endianness формата : Big
    Идентификатор кодека : A_AC3
    Продолжительность : 2 ч. 1 м.
    Вид битрейта : Постоянный
    Битрейт : 384 Кбит/сек
    Каналы : 6 каналов
    Расположение каналов : Front: L C R, Side: L R, LFE
    Частота : 48,0 КГц
    Битовая глубина : 16 бит
    Метод сжатия : С потерями
    Размер потока : 335 Мбайт (12%)
    Заголовок : Испанский
    Язык : Spanish
    Default : Нет
    Forced : Да
    Меню
    00:00:00.000 : en:00:00:00.000
    00:08:48.820 : en:00:08:48.820
    00:20:34.275 : en:00:20:34.275
    00:38:56.334 : en:00:38:56.334
    01:01:52.709 : en:01:01:52.709
    01:25:29.124 : en:01:25:29.124

    Скриншот c названием фильма

    Скриншоты

    Возраст

    16 + зрителям, достигшим 16 лет

    Рейтинг MPAA

    R - лицам до 17 лет обязательно присутствие взрослого

    Награды

    2015 Оскар, номинация: Лучший фильм на иностранном языке
    2015 Гойя, победитель: Лучший латиноамериканский фильм
    2015 Гойя, номинации: Лучший фильм, Лучшая мужская роль (Рикардо Дарин), Лучший режиссер (Дамиан Сифрон), Лучший сценарий, Лучший монтаж, Лучший оригинальный саундтрек, Лучший грим/причёски, Лучшее руководство производством
    2014 Каннский кинофестиваль, номинация: Золотая пальмовая ветвь
    2014 Сан-Себастьян, победитель: Приз зрительских симпатий за лучший европейский фильм
    Скачать .torrent

    Скачать торрент-файл бесплатно и на максимальной скорости!

    Как скачивать? · Что такое торрент? · Рейтинг и ограничения

    !ВНИМАНИЕ!
    Сайт не распространяет и не хранит электронные версии произведений, а занимается лишь лишь предоставлением доступа к создаваемому пользователями каталогу ссылок на торрент-файлы, которые содержат только списки хеш-сумм, убедительная просьба с жалобами обращаться напрямую к пользователю. Файлы для обмена на трекере предоставлены пользователями сайта, и администрация не несёт ответственности за их содержание. Просьба не заливать файлы, защищенные авторскими правами, а также файлы нелегального содержания!


    _________________
    [Профиль] [ЛС]
    Показать сообщения:    
    Ответить на тему

    Текущее время: Сегодня, в 06:17

    Часовой пояс: GMT + 2



    Вы не можете начинать темы
    Вы не можете отвечать на сообщения
    Вы не можете редактировать свои сообщения
    Вы не можете удалять свои сообщения
    Вы не можете голосовать в опросах
    Вы не можете прикреплять файлы к сообщениям
    Вы не можете скачивать файлы