BitTorrentTracker PerecTracker.org
BitTorrentTracker PerecTracker.org
    
Регистрация  ·  Вход
 
 · 
Забыли пароль?

  • Развод по-французски / L`ex de ma vie (Дороте Себба / Dorothée Sebbagh) [2014, Франция, Италия, комедия, мелодрама, WEB-DLRip] Dub (iTunes)

    Ответить на тему
     
    Автор Сообщение

    Light

    Создавать темы 09-Апр-2015 00:24

           

    [Цитировать]

    Развод по-французски / L`ex de ma vie
    Страна: Франция, Италия
    Жанр: комедия, мелодрама
    Год выпуска: 2014
    Продолжительность:01:34:00
    Перевод: Профессиональный (полное дублирование) [iTunes]
    Оригинальная аудиодорожка: нет
    Cубтитры: нет
    Режиссер: Дороте Себба / Dorothée Sebbagh
    В ролях:Жеральдин Накаш, Ким Росси Стюарт, Паскаль Демолон, Софи Каттани, Катрин Жакоб, Жерар Дюбуш, Николь Феррони, Нора Хамзави, Эрик Фрей, Айса Буссетта
    Описание: Ариан и Нино никогда не были обычной парой. Они жили счастливо, вопреки обычаям: женитьба в джинсах, без свадебной церемонии. Нино — преподаватель начальной школы в маленькой деревушке недалеко от Рима, Ариан путешествует по миру в качестве концертирующей скрипачки. Все хорошо пока их принципиальные различия не взяли верх над их любовью. Два года спустя, Ариан поняла, что хочет выйти замуж и переехать в Америку с известным дирижером по имени Кристен, но для бракоразводного дела в Италии требуется 5 лет, в то время как во Франции 8 дней. Ариан предлагает Нино развестись. Он согласен лишь с одним условием: они проводят эти 8 дней в Париже, вместо медового месяца, которого у них никогда не было…

    Качество: WEB-DLRip
    Контейнер: AVI
    Видео: 688x288 (2.39:1), 24 fps, XviD build 50 ~1164 kbps avg, 0.25 bit/pixel
    Аудио: 48 kHz, MPEG Layer 3, 2 ch, ~128.00 kbps avg

    MI

    Общее
    Полное имя : C:\Users\Вячеслав\Downloads\Развод_WEB-DRip_Некул.avi
    Формат : AVI
    Формат/Информация : Audio Video Interleave
    Размер файла : 743 Мбайт
    Продолжительность : 1 ч. 19 м.
    Общий поток : 1302 Кбит/сек
    Программа кодирования : VirtualDubMod 1.5.10.3 | www.virtualdub-fr.org || (build 2550/release)
    Библиотека кодирования : VirtualDubMod build 2550/release
    Видео
    Идентификатор : 0
    Формат : MPEG-4 Visual
    Профиль формата : Advanced Simple@L5
    Параметр BVOP формата : 2
    Параметр QPel формата : Нет
    Параметр GMC формата : Без точки перехода
    Параметр матрицы формата : Default (MPEG)
    Идентификатор кодека : DX50
    Идентификатор кодека/Подсказка : DivX 5
    Продолжительность : 1 ч. 19 м.
    Битрейт : 1164 Кбит/сек
    Ширина : 688 пикселей
    Высота : 288 пикселей
    Соотношение сторон : 2,40:1
    Частота кадров : 24,000 кадра/сек
    Цветовое пространство : YUV
    Субдискретизация насыщенности : 4:2:0
    Битовая глубина : 8 бит
    Тип развёртки : Прогрессивная
    Метод сжатия : С потерями
    Бит/(Пиксели*Кадры) : 0.245
    Размер потока : 664 Мбайт (89%)
    Библиотека кодирования : XviD 1.2.1 (UTC 2008-12-04)
    Аудио
    Идентификатор : 1
    Формат : MPEG Audio
    Версия формата : Version 1
    Профиль формата : Layer 3
    Идентификатор кодека : 55
    Идентификатор кодека/Подсказка : MP3
    Продолжительность : 1 ч. 19 м.
    Вид битрейта : Постоянный
    Битрейт : 128 Кбит/сек
    Каналы : 2 канала
    Частота : 48,0 КГц
    Метод сжатия : С потерями
    Размер потока : 73,0 Мбайт (10%)
    Выравнивание : Соединение по промежуткам
    Продолжительность промежутка : 42 мс. (1,00 видеокадр)
    Время предзагрузки промежутка : 504 мс.
    Библиотека кодирования : LAME3.99r
    Настройки программы : -m s -V 4 -q 2 -lowpass 17 -b 128

    Скриншоты

    Скачать .torrent

    Скачать торрент-файл бесплатно и на максимальной скорости!

    Как скачивать? · Что такое торрент? · Рейтинг и ограничения

    !ВНИМАНИЕ!
    Сайт не распространяет и не хранит электронные версии произведений, а занимается лишь лишь предоставлением доступа к создаваемому пользователями каталогу ссылок на торрент-файлы, которые содержат только списки хеш-сумм, убедительная просьба с жалобами обращаться напрямую к пользователю. Файлы для обмена на трекере предоставлены пользователями сайта, и администрация не несёт ответственности за их содержание. Просьба не заливать файлы, защищенные авторскими правами, а также файлы нелегального содержания!


    _________________
    [Профиль] [ЛС]
    Показать сообщения:    
    Ответить на тему

    Текущее время: Сегодня, в 14:02

    Часовой пояс: GMT + 2



    Вы не можете начинать темы
    Вы не можете отвечать на сообщения
    Вы не можете редактировать свои сообщения
    Вы не можете удалять свои сообщения
    Вы не можете голосовать в опросах
    Вы не можете прикреплять файлы к сообщениям
    Вы не можете скачивать файлы