BitTorrentTracker PerecTracker.org
BitTorrentTracker PerecTracker.org
    
Регистрация  ·  Вход
 
 · 
Забыли пароль?

  • Последний человек на Земле / The Last Man on Earth / Сезон: 1 / Серии: 1-8 из 10 (Фил Лорд / Phil Lord, Кристофер Миллер / Christopher Miller) [2015, фантастика, боевик, комедия, WEB-DLRip] DVO (Кубик в Кубе) + Original

    Ответить на тему
     
    Автор Сообщение

    Skillters

    Создавать темы 08-Апр-2015 17:46

           

    [Цитировать]

    Последний человек на Земле / The Last Man on Earth
    Серии: 1-8 из 10-Год выпуска: 2015
    Страна: США
    Жанр: фантастика, боевик, комедия
    Продолжительность: 8х ~00:22:00
    Перевод: Профессиональный (двухголосый закадровый) Кубик в Кубе
    Субтитры: отсутствуют-Режиссёр: Фил Лорд / Phil Lord, Кристофер Миллер / Christopher Miller
    В ролях: Клеопатра Коулмэн, Дженьюэри Джонс, Мэл Родригез, Кристен Шаал, Уилл Форте
    Описание: Фил Миллер когда-то был просто обычным парнем, который любил свою семью и ненавидел свою работу в банке - теперь он последняя надежда человечества. Найдет ли он когда-нибудь другого живого человека на планете?- -Качество: WEB-DLRip
    Формат: AVI
    Видео кодек: XviD
    Аудио кодек: MP3
    Видео: XviD, 720x400 (16:9), 23,976 fps, ~1400 kbps
    Аудио Rus: MP3, 48 kHz, 2 ch, 128 kbps
    Аудио Eng: MP3, 48 kHz, 2 ch, 128 kbps

    -

    Список серий

    01. Выживший в Тусоне
    02. Слон в комнате
    03. Шары изюминки и свадебный колокольчик
    04. Милая Мелисса
    05. Задай трёпку скунсу
    06. Какой-то тупой толстяк
    07. Она сводит меня с ума
    08. Переезжаю

    MediaInfo

    Формат                                   : AVI
    Формат/Информация                        : Audio Video Interleave
    Размер файла                             : 551 Мбайт
    Продолжительность                        : 43 м.
    Общий поток                              : 1762 Кбит/сек
    Программа кодирования                    : VirtualDubMod 1.5.10.3 (build 2550/release)
    Библиотека кодирования                   : VirtualDubMod build 2550/release
    [br]
    Видео
    Идентификатор                            : 0
    Формат                                   : MPEG-4 Visual
    Профиль формата                          : Advanced Simple@L5
    Параметр BVOP формата                    : 1
    Параметр QPel формата                    : Нет
    Параметр GMC формата                     : Без точки перехода
    Параметр матрицы формата                 : Default (MPEG)
    Идентификатор кодека                     : XVID
    Идентификатор кодека/Подсказка           : XviD
    Продолжительность                        : 43 м.
    Битрейт                                  : 1492 Кбит/сек
    Ширина                                   : 720 пикселей
    Высота                                   : 400 пикселей
    Соотношение сторон                       : 16:9
    Частота кадров                           : 23,976 кадра/сек
    Цветовое пространство                    : YUV
    Субдискретизация насыщенности            : 4:2:0
    Битовая глубина                          : 8 бит
    Тип развёртки                            : Прогрессивная
    Метод сжатия                             : С потерями
    Бит/(Пиксели*Кадры)                      : 0.216
    Размер потока                            : 467 Мбайт (85%)
    Библиотека кодирования                   : XviD 73
    [br]
    Аудио #1
    Идентификатор                            : 1
    Формат                                   : MPEG Audio
    Версия формата                           : Version 1
    Профиль формата                          : Layer 3
    Режим                                    : Joint stereo
    Расширение режима                        : MS Stereo
    Идентификатор кодека                     : 55
    Идентификатор кодека/Подсказка           : MP3
    Продолжительность                        : 43 м.
    Вид битрейта                             : Постоянный
    Битрейт                                  : 128 Кбит/сек
    Каналы                                   : 2 канала
    Частота                                  : 48,0 КГц
    Метод сжатия                             : С потерями
    Размер потока                            : 40,0 Мбайт (7%)
    Выравнивание                             : Соединение по промежуткам
    Продолжительность промежутка             : 42  мс. (1,00 видеокадр)
    Время предзагрузки промежутка            : 504  мс.
    [br]
    Аудио #2
    Идентификатор                            : 2
    Формат                                   : MPEG Audio
    Версия формата                           : Version 1
    Профиль формата                          : Layer 3
    Режим                                    : Joint stereo
    Расширение режима                        : MS Stereo
    Идентификатор кодека                     : 55
    Идентификатор кодека/Подсказка           : MP3
    Продолжительность                        : 43 м.
    Вид битрейта                             : Постоянный
    Битрейт                                  : 128 Кбит/сек
    Каналы                                   : 2 канала
    Частота                                  : 48,0 КГц
    Метод сжатия                             : С потерями
    Размер потока                            : 40,0 Мбайт (7%)
    Выравнивание                             : Соединение по промежуткам
    Продолжительность промежутка             : 42  мс. (1,00 видеокадр)
    Время предзагрузки промежутка            : 504  мс.

    Скриншоты

    Внимание! Раздача ведётся путём добавления новых серий

    Внимание! Раздача ведётся путём добавления новых серий; при каждом добавлении создаётся новый торрент. Чтобы начать докачку новой серии, пользователям необходимо сделать следующее:
    (1) остановить скачивание,
    (2) удалить старый торрент у себя из клиента (старые серии удалять не надо),
    (3) скачать новый торрент и запустить его у себя в клиенте вместо старого, при этом указать клиенту путь в старую папку куда и должно происходить скачивание новых серий.
    Ваш клиент при этом должен произвести хеширование (проверку) старой папки (если не производит сам - помогите ему сделать это), и будет докачивать только те серии которых у вас ещё нет. Старые серии при этом не удаляются, а продолжают раздаваться!
    Eсли вы уже удалили старые серии, то предотвратить повторную закачку старых серий можно, отжав галочку в соответствующих местах при запуске нового торрента. По возможности, желательно не удалять старые серии как можно дольше чтобы релизёр не столько продолжал раздавать старые серии, а смог сконцентрироваться на новых.
    Скачать .torrent

    Скачать торрент-файл бесплатно и на максимальной скорости!

    Как скачивать? · Что такое торрент? · Рейтинг и ограничения

    !ВНИМАНИЕ!
    Сайт не распространяет и не хранит электронные версии произведений, а занимается лишь лишь предоставлением доступа к создаваемому пользователями каталогу ссылок на торрент-файлы, которые содержат только списки хеш-сумм, убедительная просьба с жалобами обращаться напрямую к пользователю. Файлы для обмена на трекере предоставлены пользователями сайта, и администрация не несёт ответственности за их содержание. Просьба не заливать файлы, защищенные авторскими правами, а также файлы нелегального содержания!


    _________________
    [Профиль] [ЛС]
    Показать сообщения:    
    Ответить на тему

    Текущее время: Сегодня, в 02:03

    Часовой пояс: GMT + 2



    Вы не можете начинать темы
    Вы не можете отвечать на сообщения
    Вы не можете редактировать свои сообщения
    Вы не можете удалять свои сообщения
    Вы не можете голосовать в опросах
    Вы не можете прикреплять файлы к сообщениям
    Вы не можете скачивать файлы