BitTorrentTracker PerecTracker.org
BitTorrentTracker PerecTracker.org
    
Регистрация  ·  Вход
 
 · 
Забыли пароль?

  • За день до... (Олег Борецкий, Александр Негреба) [1991 г., Драма, криминал, VHSRip]

    Ответить на тему
     
    Автор Сообщение

    Light

    Создавать темы 08-Апр-2015 03:24

           

    [Цитировать]

    За день до...Год выпуска: 1991.
    Жанр: Драма, криминал.
    Продолжительность: 01:48:53.
    Режиссеры: Олег Борецкий, Александр Негреба.
    В ролях:
    Елена Копцева-Негреба, Галина Сазонова, Татьяна Кореневская, Олег Борецкий, Александр Негреба, Александр Миронов, Михаил Богдасаров, Григорий Мануков, Игорь Золотовицкий, Александр Мохов, Александр Макаров, Павел Сиротин.
    Описание:
    История лирических дилетантов в среде профессиональных убийц. Компания творческой молодежи пытается в заповедной квартире сохранить островок безопасности, покоя, свой особый стиль жизни и отношений. Hо эта свобода дорого им обходится. Начинается лента как плохой советский детектив, а заканчивается как лихой "кооперативный" боевик. И в промежутке между жанрами - жизнь, любовь, кино.
    Доп. информация:
    Страна: СССР .
    Киностудия: ХТО "Веди-Фильм".
    Авторы сценария: Юрий Матыс, Ирина Рогачева.
    Операторы: Виктор Куликов, Михаил Мукасей.
    Композитор: Владимир Логунов.
    Художник: Дмитрий Комиссаров.
    Премьера: февраль 1992 года.
    Награды, номинации, фестивали:
    • 1993 Кинофестиваль «Вторая премьера» в Москве. Приз в номинации «Фаворит года» (Александр Негреба),
    • 1991 МКФеждународный Кинофестиваль "Интерфест" в Москве. Приз прессы за режиссуру (Александр Негреба).

    Релиз
    Рип с этой раздачи.
    Большое спасибо Starik1941 за материал для рипа!!!

    Качество: VHSRip
    Формат: AVI
    Видео: 672x512 (1.31:1), 25 fps, XviD build 73 ~1735 kbps avg, 0.20 bit/pixel
    Аудио: 48 kHz, AC3 Dolby Digital, 2/0 (L,R) ch, ~192 kbps

    Отчет MI

    General
    Complete name : Za.den'.do.1991.XviD.VHSRip.fenixclub_1.47.avi
    Format : AVI
    Format/Info : Audio Video Interleave
    File size : 1.47 GiB
    Duration : 1h 48mn
    Overall bit rate : 1 937 Kbps
    Writing application : VirtualDubMod 1.5.10.3 | www.virtualdub-fr.org || (build 2550/release)
    Writing library : VirtualDubMod build 2550/release
    Video
    ID : 0
    Format : MPEG-4 Visual
    Format profile : Advanced Simple@L5
    Format settings, BVOP : 1
    Format settings, QPel : No
    Format settings, GMC : No warppoints
    Format settings, Matrix : Custom
    Codec ID : XVID
    Codec ID/Hint : XviD
    Duration : 1h 48mn
    Bit rate : 1 736 Kbps
    Width : 672 pixels
    Height : 512 pixels
    Display aspect ratio : 4:3
    Frame rate : 25.000 fps
    Color space : YUV
    Chroma subsampling : 4:2:0
    Bit depth : 8 bits
    Scan type : Progressive
    Compression mode : Lossy
    Bits/(Pixel*Frame) : 0.202
    Stream size : 1.32 GiB (90%)
    Writing library : XviD 73
    Audio
    ID : 1
    Format : AC-3
    Format/Info : Audio Coding 3
    Mode extension : CM (complete main)
    Format settings, Endianness : Big
    Codec ID : 2000
    Duration : 1h 48mn
    Bit rate mode : Constant
    Bit rate : 192 Kbps
    Channel(s) : 2 channels
    Channel positions : Front: L R
    Sampling rate : 48.0 KHz
    Bit depth : 16 bits
    Compression mode : Lossy
    Stream size : 150 MiB (10%)
    Alignment : Split accross interleaves
    Interleave, duration : 40 ms (1.00 video frame)
    Interleave, preload duratio : 500 ms.
    Скриншоты

    Альтернативный хост

    Скачать .torrent

    Скачать торрент-файл бесплатно и на максимальной скорости!

    Как скачивать? · Что такое торрент? · Рейтинг и ограничения

    !ВНИМАНИЕ!
    Сайт не распространяет и не хранит электронные версии произведений, а занимается лишь лишь предоставлением доступа к создаваемому пользователями каталогу ссылок на торрент-файлы, которые содержат только списки хеш-сумм, убедительная просьба с жалобами обращаться напрямую к пользователю. Файлы для обмена на трекере предоставлены пользователями сайта, и администрация не несёт ответственности за их содержание. Просьба не заливать файлы, защищенные авторскими правами, а также файлы нелегального содержания!


    _________________
    [Профиль] [ЛС]
    Показать сообщения:    
    Ответить на тему

    Текущее время: Сегодня, в 06:36

    Часовой пояс: GMT + 2



    Вы не можете начинать темы
    Вы не можете отвечать на сообщения
    Вы не можете редактировать свои сообщения
    Вы не можете удалять свои сообщения
    Вы не можете голосовать в опросах
    Вы не можете прикреплять файлы к сообщениям
    Вы не можете скачивать файлы