BitTorrentTracker PerecTracker.org
BitTorrentTracker PerecTracker.org
    
Регистрация  ·  Вход
 
 · 
Забыли пароль?

  • Американцы / The Americans / Сезон: 2 / Серии: 1-13 из 13 (Дэниэл Сакхейм, Джон Дал, Томас Шламми) [2014, драма, триллер, криминал, WEB-DLRip] MVO (NewStudio) + Original

    Ответить на тему
     
    Автор Сообщение

    Skillters

    Создавать темы 07-Апр-2015 23:08

           

    [Цитировать]

    Американцы / The AmericansПолный второй сезон!-Год выпуска: 2014
    Страна: США
    Жанр: драма, триллер, криминал
    Продолжительность: 13х ~ 00:48:00
    Перевод: Профессиональный многоголосый закадровый NewStudio
    Субтитры: нет-Режиссёры: Дэниэл Сакхейм, Джон Дал, Томас Шламми-В ролях: Аннет Махендру, Холли Тейлор, Роман Блат, Пол Джуд Летерски, Мэттью Риз, Кери Рассел, Марми Косико-Описание: История о сложном браке двух агентов КГБ, которые под видом американцев заселяются в пригород Вашингтона сразу после того, как президентом избирают Рейгана. Подставной брак Филлипа и Элизабет с каждым днем становится все более настоящим и эмоциональным, несмотря на эскалацию холодной войны и опасные отношения, которые они должны поддерживать с сетью шпионов и информаторов. Напряжение нарастает, когда появляется новый сосед Стэн, агент ФБР, который работает в контрразведке.- -Качество: WEB-DLRip
    Формат: AVI
    Видео кодек: XviD
    Аудио кодек: MP3
    Видео: 720x400 (16:9), 23.976 fps, 1356 kbps, 0.196 bit/pixel
    Аудио 1: 48 kHz, 2 ch, 128 kbps - Russian
    Аудио 2: 48 kHz, 2 ch, 128 kbps - English

    Список серий

    01. Comrades / Товарищи.
    02. Cardinal / Кардинал.
    03. The Walk In / Перебежчик.
    04. A Little Night Music / Немного вечерней музыки.
    05. The Deal / Сделка.
    06. Behind the Red Door / За красной дверью.
    07. ARPANET / Арпанет.
    08. New Car / Новая машина.
    09. Martial Eagle / Боевой Орёл.
    10. Yousaf / Юсуф.
    11. Stealth / Стелс.
    12. Operation Chronicle / Операция "Летопись".
    13. Echo / Эхо.

    Скриншоты

    MediaInfo

    Общее:
    Формат : AVI
    Формат/Информация : Audio Video Interleave
    Размер файла : 550 Мбайт
    Продолжительность : 47 м.
    Общий поток : 1626 Кбит/сек
    Программа кодирования : VirtualDubMod 1.5.10.2 (build 2540/release)
    Библиотека кодирования : VirtualDubMod build 2540/release
    Видео:
    Формат : MPEG-4 Visual
    Профиль формата : Advanced Simple@L5
    Параметр BVOP формата : 2
    Параметр QPel формата : Нет
    Параметр GMC формата : Без точки перехода
    Параметр матрицы формата : Default (MPEG)
    Идентификатор кодека : XVID
    Идентификатор кодека/Подсказка : XviD
    Продолжительность : 47 м.
    Битрейт : 1356 Кбит/сек
    Ширина : 720 пикселей
    Высота : 400 пикселей
    Соотношение сторон : 16:9
    Частота кадров : 23,976 кадра/сек
    Цветовое пространство : YUV
    Субдискретизация насыщенности : 4:2:0
    Битовая глубина : 8 бит
    Тип развёртки : Прогрессивная
    Метод сжатия : С потерями
    Бит/(Пиксели*Кадры) : 0.196
    Размер потока : 459 Мбайт (83%)
    Библиотека кодирования : XviD 64
    Аудио #1:
    Формат : MPEG Audio
    Версия формата : Version 1
    Профиль формата : Layer 3
    Режим : Joint stereo
    Расширение режима : MS Stereo
    Идентификатор кодека : 55
    Идентификатор кодека/Подсказка : MP3
    Продолжительность : 47 м.
    Вид битрейта : Постоянный
    Битрейт : 128 Кбит/сек
    Каналы : 2 канала
    Частота : 48,0 КГц
    Метод сжатия : С потерями
    Размер потока : 43,3 Мбайт (8%)
    Выравнивание : Соединение по промежуткам
    Продолжительность промежутка : 42 мс. (1,00 видеокадр)
    Время предзагрузки промежутка : 504 мс.
    Аудио #2:
    Формат : MPEG Audio
    Версия формата : Version 1
    Профиль формата : Layer 3
    Режим : Joint stereo
    Расширение режима : MS Stereo
    Идентификатор кодека : 55
    Идентификатор кодека/Подсказка : MP3
    Продолжительность : 47 м.
    Вид битрейта : Постоянный
    Битрейт : 128 Кбит/сек
    Каналы : 2 канала
    Частота : 48,0 КГц
    Метод сжатия : С потерями
    Размер потока : 43,3 Мбайт (8%)
    Выравнивание : Соединение по промежуткам
    Продолжительность промежутка : 42 мс. (1,00 видеокадр)
    Время предзагрузки промежутка : 504 мс.
    Библиотека кодирования : LAME3.99r
    Настройки программы : -m j -V 4 -q 2 -lowpass 17 -b 128[/pre]
    Скачать .torrent

    Скачать торрент-файл бесплатно и на максимальной скорости!

    Как скачивать? · Что такое торрент? · Рейтинг и ограничения

    !ВНИМАНИЕ!
    Сайт не распространяет и не хранит электронные версии произведений, а занимается лишь лишь предоставлением доступа к создаваемому пользователями каталогу ссылок на торрент-файлы, которые содержат только списки хеш-сумм, убедительная просьба с жалобами обращаться напрямую к пользователю. Файлы для обмена на трекере предоставлены пользователями сайта, и администрация не несёт ответственности за их содержание. Просьба не заливать файлы, защищенные авторскими правами, а также файлы нелегального содержания!


    _________________
    [Профиль] [ЛС]
    Показать сообщения:    
    Ответить на тему

    Текущее время: Сегодня, в 16:51

    Часовой пояс: GMT + 2



    Вы не можете начинать темы
    Вы не можете отвечать на сообщения
    Вы не можете редактировать свои сообщения
    Вы не можете удалять свои сообщения
    Вы не можете голосовать в опросах
    Вы не можете прикреплять файлы к сообщениям
    Вы не можете скачивать файлы