BitTorrentTracker PerecTracker.org
BitTorrentTracker PerecTracker.org
    
Регистрация  ·  Вход
 
 · 
Забыли пароль?

  • Кат Бэнк / Cut Bank (Мэтт Шекман / Matt Shakman) [2014, США, триллер, WEB-DL] Sub Rus

    Ответить на тему
     
    Автор Сообщение

    Light

    Создавать темы 07-Апр-2015 14:48

           

    [Цитировать]

    Кат Бэнк / Cut Bank
    Страна: США
    Жанр: триллер
    Год выпуска: 2014
    Продолжительность: 01:33:18
    Перевод: Субтитры перевод Janetta
    Cубтитры: русские
    Режиссер: Мэтт Шекман / Matt Shakman
    В ролях: Билли Боб Торнтон, Лиам Хемсворт, Тереза Палмер, Джон Малкович, Майкл Стулбарг, Брюс Дерн,Оливер Платт, Соня Саломяа, Эйден Лонгуорт, Пейтон Кеннеди
    Описание: Дуэйн МакЛарен живет в городе Кат Бэнк, штат Монтана, работает в автомастерской, но в школе был звездой футбола. Поскольку городок буквально застрял во времени, Дуэйну очень хочется вырваться из него. Он предпринимает все возможное, чтобы покинуть Кат Бэнк, тем самым запуская череду событий, которые изменят не только его жизнь, но и сам город.
    Доп. информация:
    Сэмпл: http://sendfile.su/1105039
    Качество видео: WEB-DL
    Формат видео: MP4
    Видео: MPEG4 Video 1280x528 (2.40:1), 23.976fps, 3160kbps, 0.195
    Аудио: AAC 48000Hz 6ch 125kbps, 5.1
    Формат субтитров: hardsub (неотключаемые)
    Доп. информация о субтитрах: Русские (вшитые)

    MediaInfo

    Общее
    Формат : MPEG-4
    Профиль формата : Base Media
    Идентификатор кодека : isom
    Размер файла : 2,14 Гбайт
    Продолжительность : 1 ч. 33 м.
    Режим общего битрейта : Переменный
    Общий поток : 3288 Кбит/сек
    Дата кодирования : UTC 2015-04-06 16:59:31
    Дата пометки : UTC 2015-04-06 16:59:31
    Программа кодирования : FormatFactory : www.pcfreetime.com
    Видео
    Идентификатор : 1
    Формат : MPEG-4 Visual
    Профиль формата : Simple@L1
    Параметр BVOP формата : Нет
    Параметр QPel формата : Нет
    Параметр GMC формата : Без точки перехода
    Параметр матрицы формата : Default (H.263)
    Идентификатор кодека : 20
    Продолжительность : 1 ч. 33 м.
    Вид битрейта : Переменный
    Битрейт : 3160 Кбит/сек
    Максимальный битрейт : 32,4 Мбит/сек
    Ширина : 1280 пикселей
    Высота : 528 пикселей
    Соотношение сторон : 2,40:1
    Режим частоты кадров : Постоянный
    Частота кадров : 23,976 кадра/сек
    Цветовое пространство : YUV
    Субдискретизация насыщенности : 4:2:0
    Битовая глубина : 8 бит
    Тип развёртки : Прогрессивная
    Метод сжатия : С потерями
    Бит/(Пиксели*Кадры) : 0.195
    Размер потока : 2,06 Гбайт (96%)
    Библиотека кодирования : Lavc53.8.0
    Дата кодирования : UTC 2015-04-06 16:59:31
    Дата пометки : UTC 2015-04-06 17:01:32
    Аудио
    Идентификатор : 2
    Формат : AAC
    Формат/Информация : Advanced Audio Codec
    Профиль формата : LC
    Идентификатор кодека : 40
    Продолжительность : 1 ч. 33 м.
    Вид битрейта : Переменный
    Битрейт : 125 Кбит/сек
    Максимальный битрейт : 279 Кбит/сек
    Каналы : 2 канала
    Channel(s)_Original : 6 каналов
    Расположение каналов : Front: L C R, Side: L R, LFE
    Частота : 48,0 КГц
    Метод сжатия : С потерями
    Размер потока : 83,6 Мбайт (4%)
    Дата кодирования : UTC 2015-04-06 17:01:06
    Дата пометки : UTC 2015-04-06 17:01:32

    Скриншот c названием фильма

    Скриншоты




    Скачать .torrent

    Скачать торрент-файл бесплатно и на максимальной скорости!

    Как скачивать? · Что такое торрент? · Рейтинг и ограничения

    !ВНИМАНИЕ!
    Сайт не распространяет и не хранит электронные версии произведений, а занимается лишь лишь предоставлением доступа к создаваемому пользователями каталогу ссылок на торрент-файлы, которые содержат только списки хеш-сумм, убедительная просьба с жалобами обращаться напрямую к пользователю. Файлы для обмена на трекере предоставлены пользователями сайта, и администрация не несёт ответственности за их содержание. Просьба не заливать файлы, защищенные авторскими правами, а также файлы нелегального содержания!


    _________________
    [Профиль] [ЛС]
    Показать сообщения:    
    Ответить на тему

    Текущее время: Сегодня, в 01:54

    Часовой пояс: GMT + 2



    Вы не можете начинать темы
    Вы не можете отвечать на сообщения
    Вы не можете редактировать свои сообщения
    Вы не можете удалять свои сообщения
    Вы не можете голосовать в опросах
    Вы не можете прикреплять файлы к сообщениям
    Вы не можете скачивать файлы