BitTorrentTracker PerecTracker.org
BitTorrentTracker PerecTracker.org
    
Регистрация  ·  Вход
 
 · 
Забыли пароль?

  • За пригоршню поцелуев / Por un punado de besos (Давид Менкес / David Menkes) [2014, Испания, мелодрама, драма, HDRip] Sub Rus

    Ответить на тему
     
    Автор Сообщение

    Light

    Создавать темы 07-Апр-2015 14:48

           

    [Цитировать]

    За пригоршню поцелуев / Por un puñado de besos
    Страна: Испания
    Жанр: мелодрама, драма
    Год выпуска: 2014
    Продолжительность: 01:38:00
    Перевод: Субтитры Нотабеноид: lucky_ann, pollyli, Yngigerd и Veronik
    Cубтитры: русские
    Режиссер: Давид Менкес/David Menkes
    В ролях: Ана де Армас, Мартиньо Ривас, Хан Корнет, Марина Салас, Меган Монтанер.
    Описание: Основанный на романе писателя Джорди Сьерра-и-Фабра, романтический фильм «За пригоршню поцелуев» (Por un puñado de besos) рассказывает историю девушки Соль (Ана де Армас), решившей однажды резко изменить свою жизнь. Путь для этого она видит в поиске настоящей любви, для чего и помещает объявление о том, что ищет идеального парня.
    Затея приносит успешный результат – с первой же встречи молодые люди влюбляются. Между ними начинается бурный роман, и кажется, что героиня нашла свою родственную душу. Однако ее возлюбленный Дани (Мартиньо Ривас) скрывает секрет, который способен разрушить иллюзии Соль.
    Сэмпл: http://multi-up.com/1042464
    Качество видео: HDRip (исходник: BDRip)
    Формат видео: AVI
    Видео: XVID, 720x304, 2.35:1,24.000 fps, 2 045 Kbps
    Аудио: 48 kHz, AC-3, 2 channels ,448 Kbps
    Формат субтитров: softsub (SRT)

    MediaInfo

    Format : AVI
    Format/Info : Audio Video Interleave
    File size : 1.71 GiB
    Duration : 1h 38mn
    Overall bit rate : 2 503 Kbps
    Writing application : VirtualDubMod 1.5.10.2 (build 2540/release)
    Writing library : VirtualDubMod build 2540/release
    Video
    ID : 0
    Format : MPEG-4 Visual
    Format profile : Advanced Simple@L5
    Format settings, BVOP : 2
    Format settings, QPel : No
    Format settings, GMC : No warppoints
    Format settings, Matrix : Default (MPEG)
    Codec ID : XVID
    Codec ID/Hint : XviD
    Duration : 1h 38mn
    Bit rate : 2 045 Kbps
    Width : 720 pixels
    Height : 304 pixels
    Display aspect ratio : 2.35:1
    Frame rate : 24.000 fps
    Color space : YUV
    Chroma subsampling : 4:2:0
    Bit depth : 8 bits
    Scan type : Progressive
    Compression mode : Lossy
    Bits/(Pixel*Frame) : 0.389
    Stream size : 1.40 GiB (82%)
    Writing library : XviD 1.2.1 (UTC 2008-12-04)
    Audio
    ID : 1
    Format : AC-3
    Format/Info : Audio Coding 3
    Mode extension : CM (complete main)
    Format settings, Endianness : Big
    Codec ID : 2000
    Duration : 1h 38mn
    Bit rate mode : Constant
    Bit rate : 448 Kbps
    Channel(s) : 2 channels
    Channel positions : Front: L R
    Sampling rate : 48.0 KHz
    Bit depth : 16 bits
    Compression mode : Lossy
    Stream size : 314 MiB (18%)
    Alignment : Split accross interleaves
    Interleave, duration : 42 ms (1.00 video frame)
    Interleave, preload duratio : 500 ms

    Скриншот c названием фильма

    Скриншоты

    Субтитры

    61
    00:08:51,708 --> 00:08:54,461
    Мы пришли, я здесь живу.
    62
    00:08:55,250 --> 00:08:56,217
    Хорошо.
    63
    00:08:56,625 --> 00:09:01,335
    Всё было отлично.
    Мы могли бы встретиться ещё раз.
    64
    00:09:02,208 --> 00:09:05,633
    Лучше узнаем друг друга, и если
    всё будет хорошо, ещё и ещё.
    65
    00:09:06,000 --> 00:09:06,967
    Что думаешь?
    66
    00:09:07,333 --> 00:09:08,300
    Прекрасно.
    67
    00:09:12,666 --> 00:09:14,964
    Дани, не думай, что у меня
    есть кто-то еще.
    68
    00:09:15,958 --> 00:09:17,130
    Это не важно.
    69
    00:09:17,458 --> 00:09:18,425
    Никого нет.
    70
    00:09:28,291 --> 00:09:29,383
    Пока.
    71
    00:09:37,166 --> 00:09:38,133
    Пока.
    72
    00:10:00,291 --> 00:10:04,125
    Здравствуй, Соль. В реальной жизни любовь -
    мечта для двоих,
    73
    00:10:04,583 --> 00:10:08,258
    где часто один мечтает, а другой
    позволяет о себе мечтать.
    74
    00:10:08,625 --> 00:10:11,048
    Для тех, кто любит, время- вечность,
    75
    00:10:11,333 --> 00:10:13,335
    лишь их способ прожить жизнь.
    76
    00:10:15,666 --> 00:10:18,840
    Мы, напротив, мечтаем и позволяем мечтать
    77
    00:10:19,541 --> 00:10:21,635
    в одно и то же время, вместе.
    78
    00:10:22,666 --> 00:10:25,385
    Даже если ты меня не выберешь,
    я бы хотел познакомиться.
    79
    00:10:25,791 --> 00:10:28,089
    Мы создали бы пузырь и жили бы в нем.
    80
    00:10:28,541 --> 00:10:32,626
    И конечно забыли бы о психиатрах.
    81
    00:10:45,833 --> 00:10:49,326
    Не нужно ненавидеть тех, кого любишь.
    82
    00:11:46,166 --> 00:11:47,383
    Выкладывай!
    83
    00:11:51,083 --> 00:11:52,175
    Было интересно.
    84
    00:11:52,458 --> 00:11:53,459
    Интересно?
    85
    00:11:53,791 --> 00:11:54,633
    Что?
    86
    00:11:55,000 --> 00:11:55,967
    И всё?
    87
    00:11:56,416 --> 00:11:59,420
    Мы разговаривали, узнавали друг друга и всё.
    88
    00:11:59,791 --> 00:12:02,419
    Ладно. Кем он работает?
    89
    00:12:02,791 --> 00:12:03,758
    Я не знаю.
    90
    00:12:04,291 --> 00:12:05,793
    Ты не спросила?
    Скачать .torrent

    Скачать торрент-файл бесплатно и на максимальной скорости!

    Как скачивать? · Что такое торрент? · Рейтинг и ограничения

    !ВНИМАНИЕ!
    Сайт не распространяет и не хранит электронные версии произведений, а занимается лишь лишь предоставлением доступа к создаваемому пользователями каталогу ссылок на торрент-файлы, которые содержат только списки хеш-сумм, убедительная просьба с жалобами обращаться напрямую к пользователю. Файлы для обмена на трекере предоставлены пользователями сайта, и администрация не несёт ответственности за их содержание. Просьба не заливать файлы, защищенные авторскими правами, а также файлы нелегального содержания!


    _________________
    [Профиль] [ЛС]
    Показать сообщения:    
    Ответить на тему

    Текущее время: Сегодня, в 06:58

    Часовой пояс: GMT + 2



    Вы не можете начинать темы
    Вы не можете отвечать на сообщения
    Вы не можете редактировать свои сообщения
    Вы не можете удалять свои сообщения
    Вы не можете голосовать в опросах
    Вы не можете прикреплять файлы к сообщениям
    Вы не можете скачивать файлы