Register  ·  Log in
Forgot password?

  • Зима - не полевой сезон (Юрий Пискунов) [1972, Драма, TVRip]

    Reply to topic
    Author Message


    Post 07-Apr-2015 11:36



    Зима - не полевой сезон
    Жанр: Драма
    Год выпуска: 1972
    Продолжительность: 01:08:14

    Режиссёр: Юрий Пискунов
    В ролях: Макиль Куланбаев, Куман Тастанбеков, Олег Афанасьев, Борис Гитин, Михаил Матюшевский, Нуржуман Ихтимбаев, Александр Добросов, Акерке Сулейменова, Р. Космамбетова, А. Бореев, Т. Дергачева, И. Тынышбаев, А. Батырбекова
    Описание: Добрый, семейный фильм о геологах, о человеческих отношениях и уважении друг к другу.
    Кариев не может защитить кандидатскую диссертацию, так как не имеет для своей идеи необходимого теоретического обоснования. Молодые геологи – Куров, Мухамедов и Сараев, работавшие в геологической партии под руководством Кариева, помогают ему, проявив способность решать крупные научные проблемы.

    Доп. информация:

    Качество видео: TVRip
    Формат видео: AVI
    Видео: 720x528 (1.36:1), 25 fps, XviD MPEG-4 ~1296 kbps avg, 0.14 bit/pixel
    Аудио: 48 kHz, MPEG Layer 3, 2 ch, ~128.00 kbps avg


    Complete name :
    Format : AVI
    Format/Info : Audio Video Interleave
    File size : 700 MiB
    Duration : 1h 8mn
    Overall bit rate : 1 435 Kbps
    Writing application : VirtualDubModRus (build 2542/release)
    Writing library : VirtualDub build 32842/release
    ID : 0
    Format : MPEG-4 Visual
    Format profile : Advanced Simple@L5
    Format settings, BVOP : Yes
    Format settings, QPel : No
    Format settings, GMC : No warppoints
    Format settings, Matrix : Default (H.263)
    Codec ID : XVID
    Codec ID/Hint : XviD
    Duration : 1h 8mn
    Bit rate : 1 297 Kbps
    Width : 720 pixels
    Height : 528 pixels
    Display aspect ratio : 4:3
    Frame rate : 25.000 fps
    Color space : YUV
    Chroma subsampling : 4:2:0
    Bit depth : 8 bits
    Scan type : Progressive
    Compression mode : Lossy
    Bits/(Pixel*Frame) : 0.136
    Stream size : 633 MiB (90%)
    Writing library : XviD 73
    ID : 1
    Format : MPEG Audio
    Format version : Version 1
    Format profile : Layer 3
    Mode : Joint stereo
    Mode extension : MS Stereo
    Codec ID : 55
    Codec ID/Hint : MP3
    Duration : 1h 8mn
    Bit rate mode : Constant
    Bit rate : 128 Kbps
    Channel(s) : 2 channels
    Sampling rate : 48.0 KHz
    Compression mode : Lossy
    Stream size : 62.5 MiB (9%)
    Alignment : Split accross interleaves
    Interleave, duration : 40 ms (1.00 video frame)
    Interleave, preload duration : 500 ms


    Download .torrent

    Download free and at maximum speed!

    How to Download? · What is a torrent? · Ratings and Limitations

    The site does not extend and does not store electronic(digital) versions of products, and only gives access to a reference catalogue created by users on torrent-files which contain only lists of the hash-sums, the earnest entreaty, with complaints(abuse) to access directly to the user. Files for an exchange on tracker are given by users of a site, and the administration does not bear the responsibility for their maintenance. The request to not fill in the files protected by copyrights, and also files of the illegal maintenance!

    [Profile] [PM]
    Display posts from previous:    
    Reply to topic

    The time now is: Today 10:48

    All times are GMT + 3 Hours

    You cannot post new topics in this forum
    You cannot reply to topics in this forum
    You cannot edit your posts in this forum
    You cannot delete your posts in this forum
    You cannot vote in polls in this forum
    You cannot attach files in this forum
    You cannot download files in this forum