BitTorrentTracker PerecTracker.org
BitTorrentTracker PerecTracker.org
    
Регистрация  ·  Вход
 
 · 
Забыли пароль?

  • Приключения Паддингтона / Paddington (Пол Кинг / Paul King) [2014, Великобритания, Франция, комедия, приключения, семейный, BDRip-AVC] Dub (iTunes) + Sub Eng + Original Eng

    Ответить на тему
     
    Автор Сообщение

    Light

    Создавать темы 07-Апр-2015 10:36

           

    [Цитировать]

    Приключения Паддингтона
    Paddington
    «Пожалуйста, присмотрите за этим медведем. Спасибо»
    -Страна: Великобритания, Франция
    Жанр: комедия, приключения, семейный
    Год выпуска: 2014
    Продолжительность: 01:35:12
    Перевод: Профессиональный (дублированный) iTunes
    Cубтитры: английские
    Оригинальная аудиодорожка: английский
    Режиссер: Пол Кинг/Paul King
    В ролях: Джеффри Палмер, Тим Дауни, Мадлен Уорролл, Николь Кидман, Лотти Стир, Тереза Уотсон, Имелда Стонтон, Майкл Гэмбон, Бен Уишоу-ОписаниеПознакомьтесь, это медведь по имени Паддингтон из дремучего Перу. Он приехал в Лондон, чтобы обрести семью и стать настоящим английским джентльменом. На пути к этой цели его ожидают невероятные приключения, полные юмора и опасностей.-Сэмпл

    IMDb:7,4/10 from 23 499 users
    Качество видео: BDRip-AVC Paddington.2014.1080p.BluRay.REMUX.AVC.DTS-HD.MA.5.1-RARBG
    Формат видео: MKV
    Видео: AVC 3305 Kbps 1136 x 476 (2.387) 23.976 fps
    Аудио: AC-3 384 Kbps 6 channels, 48.0 KHz Rus DUB iTunes
    Аудио 2: AC-3 448 Kbps 6 channels, 48.0 KHz Eng
    Формат субтитров: softsub (SRT)
    MediaInfo | Log

    Log

    x264 [info]: frame I:1312 Avg QP:15.38 size:101633
    x264 [info]: frame P:30286 Avg QP:17.37 size: 34535
    x264 [info]: frame B:105370 Avg QP:19.25 size: 11757
    x264 [info]: consecutive B-frames: 2.2% 2.2% 11.6% 20.2% 18.4% 35.6% 4.8% 1.7% 1.2% 0.7% 0.3% 0.4% 0.7%
    x264 [info]: mb I I16..4: 11.2% 65.8% 23.1%
    x264 [info]: mb P I16..4: 0.6% 11.7% 1.5% P16..4: 24.9% 29.6% 15.7% 3.3% 0.4% skip:12.3%
    x264 [info]: mb B I16..4: 0.1% 1.6% 0.1% B16..8: 28.5% 20.9% 5.4% direct: 6.0% skip:37.4% L0:43.2% L1:40.0% BI:16.8%
    x264 [info]: 8x8 transform intra:81.8% inter:53.0%
    x264 [info]: direct mvs spatial:100.0% temporal:0.0%
    x264 [info]: coded y,uvDC,uvAC intra: 93.9% 88.2% 80.6% inter: 26.6% 24.4% 13.2%
    x264 [info]: i16 v,h,dc,p: 36% 12% 13% 39%
    x264 [info]: i8 v,h,dc,ddl,ddr,vr,hd,vl,hu: 11% 9% 11% 9% 12% 12% 12% 11% 13%
    x264 [info]: i4 v,h,dc,ddl,ddr,vr,hd,vl,hu: 14% 10% 6% 8% 14% 13% 13% 10% 12%
    x264 [info]: i8c dc,h,v,p: 48% 22% 15% 16%
    x264 [info]: Weighted P-Frames: Y:6.5% UV:3.3%
    x264 [info]: ref P L0: 44.3% 11.8% 17.2% 6.6% 5.4% 3.3% 3.4% 1.8% 1.9% 1.3% 1.5% 1.2% 0.2% 0.0%
    x264 [info]: ref B L0: 66.9% 12.6% 6.3% 4.1% 2.5% 2.2% 1.9% 1.4% 1.1% 0.6% 0.4%
    x264 [info]: ref B L1: 92.2% 7.8%
    x264 [info]: kb/s:3386.37
    x264 [total]: encoded 136968 frames, 9.56 fps, 3386.37 kb/s, duration 3:58:52.26
    Format : Matroska
    Format version : Version 4 / Version 2
    File size : 2.81 GiB
    Duration : 1h 35mn
    Overall bit rate : 4 221 Kbps
    Encoded date : UTC 2015-04-06 20:29:00
    Writing application : mkvmerge v6.7.0 ('Back to the Ground') 32bit built on Jan 8 2014 15:03:17
    Writing library : libebml v1.3.0 + libmatroska v1.4.1
    Video
    ID : 1
    Format : AVC
    Format/Info : Advanced Video Codec
    Format profile : High@L4.1
    Format settings, CABAC : Yes
    Format settings, ReFrames : 12 frames
    Codec ID : V_MPEG4/ISO/AVC
    Duration : 1h 35mn
    Bit rate : 3 305 Kbps
    Width : 1 136 pixels
    Height : 476 pixels
    Display aspect ratio : 2.40:1
    Frame rate mode : Constant
    Frame rate : 23.976 fps
    Color space : YUV
    Chroma subsampling : 4:2:0
    Bit depth : 8 bits
    Scan type : Progressive
    Bits/(Pixel*Frame) : 0.255
    Stream size : 2.20 GiB (78%)
    Title : Paddington 2014 [perectracker.org]
    Writing library : x264 core 146 r2538kMod 121396c
    Encoding settings : cabac=1 / ref=12 / deblock=1:-2:-1 / analyse=0x3:0x133 / me=umh / subme=11 / psy=1 / fade_compensate=0.00 / psy_rd=1.00:0.05 / mixed_ref=1 / me_range=32 / chroma_me=1 / trellis=2 / 8x8dct=1 / cqm=0 / deadzone=21,11 / fast_pskip=0 / chroma_qp_offset=-3 / threads=12 / lookahead_threads=3 / sliced_threads=0 / nr=0 / decimate=1 / interlaced=0 / bluray_compat=0 / constrained_intra=0 / fgo=0 / bframes=12 / b_pyramid=2 / b_adapt=2 / b_bias=0 / direct=3 / weightb=1 / open_gop=0 / weightp=2 / keyint=250 / keyint_min=23 / scenecut=40 / intra_refresh=0 / rc_lookahead=80 / rc=crf / mbtree=0 / crf=17.3000 / qcomp=0.60 / qpmin=0 / qpmax=69 / qpstep=4 / vbv_maxrate=50000 / vbv_bufsize=62500 / crf_max=0.0 / nal_hrd=none / filler=0 / ip_ratio=1.40 / pb_ratio=1.30 / aq=3:0.90
    Language : English
    Default : Yes
    Forced : No
    Audio #1
    ID : 2
    Format : AC-3
    Format/Info : Audio Coding 3
    Mode extension : CM (complete main)
    Format settings, Endianness : Big
    Codec ID : A_AC3
    Duration : 1h 35mn
    Bit rate mode : Constant
    Bit rate : 384 Kbps
    Channel(s) : 6 channels
    Channel positions : Front: L C R, Side: L R, LFE
    Sampling rate : 48.0 KHz
    Bit depth : 16 bits
    Compression mode : Lossy
    Stream size : 262 MiB (9%)
    Title : DUB [iTunes]
    Language : Russian
    Default : Yes
    Forced : No
    Audio #2
    ID : 3
    Format : AC-3
    Format/Info : Audio Coding 3
    Mode extension : CM (complete main)
    Format settings, Endianness : Big
    Codec ID : A_AC3
    Duration : 1h 35mn
    Bit rate mode : Constant
    Bit rate : 448 Kbps
    Channel(s) : 6 channels
    Channel positions : Front: L C R, Side: L R, LFE
    Sampling rate : 48.0 KHz
    Bit depth : 16 bits
    Compression mode : Lossy
    Stream size : 305 MiB (11%)
    Title : Original
    Language : English
    Default : No
    Forced : No
    Text #1
    ID : 4
    Format : UTF-8
    Codec ID : S_TEXT/UTF8
    Codec ID/Info : UTF-8 Plain Text
    Title : Full
    Language : English
    Default : No
    Forced : No
    Text #2
    ID : 5
    Format : UTF-8
    Codec ID : S_TEXT/UTF8
    Codec ID/Info : UTF-8 Plain Text
    Title : SDH
    Language : English
    Default : No
    Forced : No
    Menu
    00:00:00.000 : en:Chapter 01
    00:09:26.148 : en:Chapter 02
    00:16:45.754 : en:Chapter 03
    00:24:45.650 : en:Chapter 04
    00:32:44.921 : en:Chapter 05
    00:40:31.178 : en:Chapter 06
    00:47:55.664 : en:Chapter 07
    00:57:52.469 : en:Chapter 08
    01:03:24.467 : en:Chapter 09
    01:10:31.727 : en:Chapter 10
    01:23:49.983 : en:Chapter 11
    01:27:39.504 : en:Chapter 12

    Скриншоты




    Скачать .torrent

    Скачать торрент-файл бесплатно и на максимальной скорости!

    Как скачивать? · Что такое торрент? · Рейтинг и ограничения

    !ВНИМАНИЕ!
    Сайт не распространяет и не хранит электронные версии произведений, а занимается лишь лишь предоставлением доступа к создаваемому пользователями каталогу ссылок на торрент-файлы, которые содержат только списки хеш-сумм, убедительная просьба с жалобами обращаться напрямую к пользователю. Файлы для обмена на трекере предоставлены пользователями сайта, и администрация не несёт ответственности за их содержание. Просьба не заливать файлы, защищенные авторскими правами, а также файлы нелегального содержания!


    _________________
    [Профиль] [ЛС]
    Показать сообщения:    
    Ответить на тему

    Текущее время: Сегодня, в 14:44

    Часовой пояс: GMT + 2



    Вы не можете начинать темы
    Вы не можете отвечать на сообщения
    Вы не можете редактировать свои сообщения
    Вы не можете удалять свои сообщения
    Вы не можете голосовать в опросах
    Вы не можете прикреплять файлы к сообщениям
    Вы не можете скачивать файлы