BitTorrentTracker PerecTracker.org
BitTorrentTracker PerecTracker.org
    
Регистрация  ·  Вход
 
 · 
Забыли пароль?

  • Книга жизни / The Book of Life (Хорхе Р. Гутьеррес / Jorge R. Gutierrez) [2014, Фэнтези, Мелодрама, Комедия, Приключения, Семейный, BDRip] Dub (iTunes) + Rus, Eng Sub

    Ответить на тему
     
    Автор Сообщение

    rechyn

    Создавать темы 06-Апр-2015 22:00

           

    [Цитировать]

    Книга жизни | The Book of Life-Страна: США (Reel FX Animation Studios, 20th Century Fox)
    Жанр: Фэнтези, Мелодрама, Комедия, Приключения, Семейный
    Продолжительность: 01:35:27
    Год выпуска: 2014
    Перевод 1: Профессиональный (дублированный) iTunes
    Перевод 2: Любительский (двухголосый закадровый) (Студия Пиратского Дубляжа)
    Русские субтитры: есть
    Режиссёр: Хорхе Р. Гутьеррес / Jorge R. Gutierrez
    Роли озвучивали: Manolo - Диего Луна, Maria - Зои Салдана, Joaquin - Ченнинг Татум, Xibalba - Рон Перлман, Mary Beth - Кристина Эпплгейт, Candle Maker - Айс Кьюб, La Muerte - Кейт дель Кастильо, Carlos Sanchez - Гектор Элизондо, Skeleton Luis - Дэнни Трехо, General Posada / Dali / Chuy - Карлос Аласраки, Skeleton Carmen - Ана де ла Регера, Skeleton Jorge - Пласидо Доминго, Land of the Remembered Captain's Wife - Гильермо дель Торо и др.
    Описание: В мультфильме описывается романтическая история любви на фоне празднования Дня мертвых в Мексике. Духи Ла Муэрте и Шибальба посещают городок Сан Анхель в День Мёртвых, где они заключают пари после того как встречают пару мальчишек, Маноло и Хоакина, которые хотят завоевать сердце Марии.- | Совместный релиз:
    и -Качество: BDRip The.Book.of.Life.2014.1080p.BluRay.x264-GECKOS
    Формат: AVI
    Видео: 720x304 (2.37:1), 23.976 fps, XviD ~1793 kbps, 0.34 bit/pixel
    Аудио: 48 kHz, AC3, 3/2 (L,C,R,l,r) + LFE ch, ~384 kbps Rus Dub iTunes
    Субтитры: Rus, Eng - SRT-Спасибо holoff за русские дорожки и субтитры!

    Отчет MI

    GeneralComplete name : \The Book of Life_BDRip.2014_Olu6ka_1.45.aviFormat : AVIFormat/Info : Audio Video InterleaveFile size : 1.46 GiBDuration : 1h 35mnOverall bit rate : 2 187 KbpsWriting application : VirtualDubModRus 1.5.10.2 (build 2542/release)Writing library : VirtualDubMod build 2542/release
    VideoID : 0Format : MPEG-4 VisualFormat profile : Advanced Simple@L5Format settings, BVOP : 1Format settings, QPel : NoFormat settings, GMC : No warppointsFormat settings, Matrix : CustomCodec ID : XVIDCodec ID/Hint : XviDDuration : 1h 35mnBit rate : 1 793 KbpsWidth : 720 pixelsHeight : 304 pixelsDisplay aspect ratio : 2.35:1Frame rate : 23.976 fpsColor space : YUVChroma subsampling : 4:2:0Bit depth : 8 bitsScan type : ProgressiveCompression mode : LossyBits/(Pixel*Frame) : 0.342Stream size : 1.20 GiB (82%)Writing library : XviD 73
    AudioID : 1Format : AC-3Format/Info : Audio Coding 3Mode extension : CM (complete main)Format settings, Endianness : BigCodec ID : 2000Duration : 1h 35mnBit rate mode : ConstantBit rate : 384 KbpsChannel count : 6 channelsChannel positions : Front: L C R, Side: L R, LFESampling rate : 48.0 KHzBit depth : 16 bitsCompression mode : LossyStream size : 262 MiB (18%)Alignment : Split accross interleavesInterleave, duration : 42 ms (1.00 video frame)Interleave, preload duration : 500 ms

    Скриншоты


    Книга жизни (The Book of Life) — американский компьютерный анимационный мультфильм производства Reel FX Creative Studios и распространяется компанией "20th Century Fox"
    Продюсер: Гильермо дель Торо | Guillermo del Toro , Аарон Бергер, Брэд Букер
    Скачать .torrent

    Скачать торрент-файл бесплатно и на максимальной скорости!

    Как скачивать? · Что такое торрент? · Рейтинг и ограничения

    !ВНИМАНИЕ!
    Сайт не распространяет и не хранит электронные версии произведений, а занимается лишь лишь предоставлением доступа к создаваемому пользователями каталогу ссылок на торрент-файлы, которые содержат только списки хеш-сумм, убедительная просьба с жалобами обращаться напрямую к пользователю. Файлы для обмена на трекере предоставлены пользователями сайта, и администрация не несёт ответственности за их содержание. Просьба не заливать файлы, защищенные авторскими правами, а также файлы нелегального содержания!


    _________________
    [Профиль] [ЛС]
    Показать сообщения:    
    Ответить на тему

    Текущее время: Сегодня, в 08:03

    Часовой пояс: GMT + 2



    Вы не можете начинать темы
    Вы не можете отвечать на сообщения
    Вы не можете редактировать свои сообщения
    Вы не можете удалять свои сообщения
    Вы не можете голосовать в опросах
    Вы не можете прикреплять файлы к сообщениям
    Вы не можете скачивать файлы