BitTorrentTracker PerecTracker.org
BitTorrentTracker PerecTracker.org
    
Регистрация  ·  Вход
 
 · 
Забыли пароль?

  • Бойся желаний своих / Careful What You Wish For (Элизабет Розенбаум / Elizabeth Rosenbaum) [2015, США, триллер, детектив, DVDRip] VO (Виктор Береговых)

    Ответить на тему
     
    Автор Сообщение

    rechyn

    Создавать темы 06-Апр-2015 17:48

           

    [Цитировать]

    Бойся желаний своих / Careful What You Wish For
    Страна: США
    Жанр: триллер, детектив
    Год выпуска: 2015
    Продолжительность: 01:27:40
    Перевод: Одноголосый закадровый (Виктор Береговых) - по переводу Михаила Васильева
    Cубтитры: нет
    Режиссер: Элизабет Розенбаум / Elizabeth Rosenbaum
    В ролях: Ник Джонас, Изабель Лукас, Пол Сорвино, Дермот Малруни, Кэндис Маклюр
    Описание: Вчерашний школьник Дуг проводит лето в маленьком курортном городке, подрабатывает в местном баре и планирует поступать в университет. Появление новых соседей — богатого мужчины и его соблазнительной спутницы — вносят неожиданные коррективы в его планы. Однажды эта гламурная пара приглашает Дуга в гости. В результате он оказывается втянут в водоворот немыслимых событий и ему еще очень повезет, если он останется в живых...
    Сэмпл: https://www.sendspace.com/file/p3hcf1
    Качество видео: DVDRip
    Формат видео: AVI
    Видео: XviD, 720x304 (2.35:1), 25.000 fps, 1599 kbps avg, 0.292 bit/pixel
    Аудио: AC3, 48.0 KHz, 256 Kbps, 2 channels

    MediaInfo

    Format : AVI
    Format/Info : Audio Video Interleave
    File size : 1.10 GiB
    Duration : 1h 27mn
    Overall bit rate : 1 801 Kbps
    Movie name : RARBG.COM - Careful.What.You.Wish.For.2015.DVDRip.XviD.MP3-RARBG
    Writing application : VirtualDubMod 1.5.10.2 (build 2540/release)
    Writing library : VirtualDubMod build 2540/release
    Comment : RARBG.COM - Careful.What.You.Wish.For.2015.DVDRip.XviD.MP3-RARBG
    Video
    ID : 0
    Format : MPEG-4 Visual
    Format profile : Simple@L5
    Format settings, BVOP : No
    Format settings, QPel : No
    Format settings, GMC : No warppoints
    Format settings, Matrix : Default (H.263)
    Codec ID : XVID
    Codec ID/Hint : XviD
    Duration : 1h 27mn
    Bit rate : 1 599 Kbps
    Width : 720 pixels
    Height : 304 pixels
    Display aspect ratio : 2.35:1
    Frame rate : 25.000 fps
    Resolution : 24 bits
    Colorimetry : 4:2:0
    Scan type : Progressive
    Bits/(Pixel*Frame) : 0.292
    Stream size : 1 003 MiB (89%)
    Writing library : Lavc56.20.100
    Audio
    ID : 1
    Format : AC-3
    Format/Info : Audio Coding 3
    Codec ID : 2000
    Duration : 1h 27mn
    Bit rate mode : Constant
    Bit rate : 192 Kbps
    Channel(s) : 2 channels
    Channel positions : L R
    Sampling rate : 48.0 KHz
    Stream size : 120 MiB (11%)
    Alignment : Split accross interleaves
    Interleave, duration : 40 ms (1.00 video frame)
    Interleave, preload duration : 500 ms

    Скриншот c названием фильма

    Скриншоты

    Скачать .torrent

    Скачать торрент-файл бесплатно и на максимальной скорости!

    Как скачивать? · Что такое торрент? · Рейтинг и ограничения

    !ВНИМАНИЕ!
    Сайт не распространяет и не хранит электронные версии произведений, а занимается лишь лишь предоставлением доступа к создаваемому пользователями каталогу ссылок на торрент-файлы, которые содержат только списки хеш-сумм, убедительная просьба с жалобами обращаться напрямую к пользователю. Файлы для обмена на трекере предоставлены пользователями сайта, и администрация не несёт ответственности за их содержание. Просьба не заливать файлы, защищенные авторскими правами, а также файлы нелегального содержания!


    _________________
    [Профиль] [ЛС]
    Показать сообщения:    
    Ответить на тему

    Текущее время: Сегодня, в 05:18

    Часовой пояс: GMT + 2



    Вы не можете начинать темы
    Вы не можете отвечать на сообщения
    Вы не можете редактировать свои сообщения
    Вы не можете удалять свои сообщения
    Вы не можете голосовать в опросах
    Вы не можете прикреплять файлы к сообщениям
    Вы не можете скачивать файлы