BitTorrentTracker PerecTracker.org
BitTorrentTracker PerecTracker.org
    
Регистрация  ·  Вход
 
 · 
Забыли пароль?

  • Бесстыжие / Бесстыдники / Shameless (US) / Сезон: 2 / Серии: 1-12 из 12 (Марк Майлод / Mark Mylod, Мими Ледер / Mimi Leder) [2012, драма, комедия, HDRip] MVO (AlexFilm)

    Ответить на тему
     
    Автор Сообщение

    Skillters

    Создавать темы 06-Апр-2015 12:05

           

    [Цитировать]

    Бесстыжие / Бесстыдники / Shameless (US)ПОЛНЫЙ ВТОРОЙ СЕЗОН!-Год выпуска: 2012
    Страна: США
    Жанр: драма, комедия
    Продолжительность: 12 x ~ 00:52:00
    Перевод: Профессиональный (многоголосый, закадровый) AlexFilm
    Субтитры: нет-Режиссер: Марк Майлод / Mark Mylod, Мими Ледер / Mimi Leder-В ролях: Уильям Х. Мэйси / William H. Macy, Эмми Россам / Emmy Rossum, Джастин Чэтвин / Justin Chatwin, Итэн Каткоски / Ethan Cutkosky, Шанола Хэмптон / Shanola Hampton, Стив Хоуи / Steve Howey, Джереми Аллен Уайт / Jeremy Allen White-Описание: Американский ремейк британского сериала, повествующий о взбалмошной многодетной семье Галлахеров и их соседях, которые веселятся, попадают в самые невероятные ситуации и пытаются выжить в этом мире всеми возможными средствами, но при этом как можно меньше работая.-Внимание! В сериале присутствуют сцены с обнаженной натурой и ненормативная лексика!--Качество: HDRip
    Формат: AVI
    Видео кодек: XviD
    Аудио кодек: AC3
    Видео: 688x384 (1.79:1), 23.976 fps, XviD build 73 ~1763 kbps avg, 0.28 bit/pixel
    Аудио: 48 kHz, AC3 Dolby Digital, 2/0 (L,R) ch, ~192 kbps
    -

    Скриншоты

    MI

    D:Мои рипыShameless.s02.hdrip.dexter_lexShameless.s02e01.hdrip.dexter_lex.avi
    General
    Complete name : D:Мои рипыShameless.s02.hdrip.dexter_lexShameless.s02e01.hdrip.dexter_lex.avi
    Format : AVI
    Format/Info : Audio Video Interleave
    File size : 745 MiB
    Duration : 53mn 1s
    Overall bit rate : 1 965 Kbps
    Writing application : VirtualDubMod 1.5.10.3 | www.virtualdub-fr.org || (build 2550/release)
    Writing library : VirtualDubMod build 2550/release
    Video #0
    ID : 0
    Format : MPEG-4 Visual
    Format profile : Advanced Simple@L5
    Format settings, BVOP : 1
    Format settings, QPel : No
    Format settings, GMC : No warppoints
    Format settings, Matrix : Custom
    Codec ID : XVID
    Codec ID/Hint : XviD
    Duration : 53mn 1s
    Bit rate : 1 764 Kbps
    Width : 688 pixels
    Height : 384 pixels
    Display aspect ratio : 16:9
    Frame rate : 23.976 fps
    Color space : YUV
    Chroma subsampling : 4:2:0
    Bit depth : 8 bits
    Scan type : Progressive
    Compression mode : Lossy
    Bits/(Pixel*Frame) : 0.278
    Stream size : 669 MiB (90%)
    Writing library : XviD 73
    Audio #1
    ID : 1
    Format : AC-3
    Format/Info : Audio Coding 3
    Mode extension : CM (complete main)
    Codec ID : 2000
    Duration : 53mn 1s
    Bit rate mode : Constant
    Bit rate : 192 Kbps
    Channel(s) : 2 channels
    Channel positions : Front: L R
    Sampling rate : 48.0 KHz
    Bit depth : 16 bits
    Compression mode : Lossy
    Stream size : 72.8 MiB (10%)
    Alignment : Split accross interleaves
    Interleave, duration : 42 ms (1.00 video frame)
    Interleave, preload duration : 500 ms

    Список серий

    01. Summertime / Летние деньки
    02. Summer Loving / Летняя любовь
    03. I’ll Light a Candle for You Every Day / Каждый день я буду ставить за тебя свечку
    04. A Beautiful Mess / Прекрасный трындец
    05. Father’s Day / День отца
    06. Can I Have a Mother / А можно мне маму?
    07. A Bottle of Jean Nate / Бутылочка ароматического масла
    08. Parenthood / Отцы и дети
    09. Hurricane Monica / Ураган Моника
    10. A Great Cause / Благое дело
    11. Just Like the Pilgrims Intended / Как и замышляли пилигримы
    12. Fiona Interrupted / Прерванная жизнь Фионы
    Скачать .torrent

    Скачать торрент-файл бесплатно и на максимальной скорости!

    Как скачивать? · Что такое торрент? · Рейтинг и ограничения

    !ВНИМАНИЕ!
    Сайт не распространяет и не хранит электронные версии произведений, а занимается лишь лишь предоставлением доступа к создаваемому пользователями каталогу ссылок на торрент-файлы, которые содержат только списки хеш-сумм, убедительная просьба с жалобами обращаться напрямую к пользователю. Файлы для обмена на трекере предоставлены пользователями сайта, и администрация не несёт ответственности за их содержание. Просьба не заливать файлы, защищенные авторскими правами, а также файлы нелегального содержания!


    _________________
    [Профиль] [ЛС]
    Показать сообщения:    
    Ответить на тему

    Текущее время: Сегодня, в 10:40

    Часовой пояс: GMT + 2



    Вы не можете начинать темы
    Вы не можете отвечать на сообщения
    Вы не можете редактировать свои сообщения
    Вы не можете удалять свои сообщения
    Вы не можете голосовать в опросах
    Вы не можете прикреплять файлы к сообщениям
    Вы не можете скачивать файлы