Register  ·  Log in
Forgot password?

  • Бесстыжие / Бесстыдники / Shameless (US) / Сезон: 1 / Серии: 1-12 из 12 (Марк Майлод / Mark Mylod, Мими Ледер / Mimi Leder) [2011, драма, комедия, HDRip] MVO (AlexFilm)

    Reply to topic
    Author Message


    Post 06-Apr-2015 12:54



    Бесстыжие / Бесстыдники / Shameless (US)ПОЛНЫЙ ПЕРВЫЙ СЕЗОН-
    Год выпуска: 2011
    Страна: США
    Жанр: драма, комедия
    Продолжительность: 12 x ~ 00:52:00
    Перевод: Профессиональный (многоголосый, закадровый) AlexFilm
    Субтитры: нет-Режиссер: Марк Майлод / Mark Mylod, Мими Ледер / Mimi Leder-В ролях: Уильям Х. Мэйси / William H. Macy, Эмми Россам / Emmy Rossum, Джастин Чэтвин / Justin Chatwin, Итэн Каткоски / Ethan Cutkosky, Шанола Хэмптон / Shanola Hampton, Стив Хоуи / Steve Howey, Джереми Аллен Уайт / Jeremy Allen White-Описание: Американский ремейк британского сериала, повествующий о взбалмошной многодетной семье Галлахеров и их соседях, которые веселятся, попадают в самые невероятные ситуации и пытаются выжить в этом мире всеми возможными средствами, но при этом как можно меньше работая.--Качество: HDRip
    Формат: AVI
    Видео кодек: XviD
    Аудио кодек: AC3
    Видео: 688x384 (1.79:1), 23.976 fps, XviD build 73 ~1604 kbps avg, 0.25 bit/pixel
    Аудио: 48 kHz, AC3 Dolby Digital, 2/0 (L,R) ch, ~192 kbps



    D:Мои рипыShameless.s01.hdrip.dexter_lexShameless.s01e01.hdrip.dexter_lex.avi
    Complete name : D:Мои рипыShameless.s01.hdrip.dexter_lexShameless.s01e01.hdrip.dexter_lex.avi
    Format : AVI
    Format/Info : Audio Video Interleave
    File size : 742 MiB
    Duration : 57mn 28s
    Overall bit rate : 1 806 Kbps
    Writing application : VirtualDubMod | || (build 2550/release)
    Writing library : VirtualDubMod build 2550/release
    Video #0
    ID : 0
    Format : MPEG-4 Visual
    Format profile : Advanced Simple@L5
    Format settings, BVOP : 1
    Format settings, QPel : No
    Format settings, GMC : No warppoints
    Format settings, Matrix : Custom
    Codec ID : XVID
    Codec ID/Hint : XviD
    Duration : 57mn 28s
    Bit rate : 1 604 Kbps
    Width : 688 pixels
    Height : 384 pixels
    Display aspect ratio : 16:9
    Frame rate : 23.976 fps
    Color space : YUV
    Chroma subsampling : 4:2:0
    Bit depth : 8 bits
    Scan type : Progressive
    Compression mode : Lossy
    Bits/(Pixel*Frame) : 0.253
    Stream size : 659 MiB (89%)
    Writing library : XviD 73
    Audio #1
    ID : 1
    Format : AC-3
    Format/Info : Audio Coding 3
    Mode extension : CM (complete main)
    Codec ID : 2000
    Duration : 57mn 28s
    Bit rate mode : Constant
    Bit rate : 192 Kbps
    Channel(s) : 2 channels
    Channel positions : Front: L R
    Sampling rate : 48.0 KHz
    Bit depth : 16 bits
    Compression mode : Lossy
    Stream size : 78.9 MiB (11%)
    Alignment : Split accross interleaves
    Interleave, duration : 42 ms (1.00 video frame)
    Interleave, preload duration : 500 ms

    Список серий

    01. Пилот (Pilot)
    02. Дубина Фрэнк (Frank the Plank)
    03. Тётя Джинджер (Aunt Ginger)
    04. Кейси Кесден (Casey Casden)
    05. Три парниши (Three Boys)
    06. Карл-убийца (Killer Carl)
    07. Фрэнк Галлагер: любящий муж, преданный отец (Frank Gallagher: Loving Husband, Devoted Father)
    08. Пора убить черепашку (It's Time to Kill the Turtle)
    09. Наконец, в дверь постучали (But at Last Came a Knock)
    10. Интрижка бабки Галлагер (Nana Gallagher Had an Affair)
    11. Папина дочка (Daddy's Girl)
    12. Отец Фрэнк, благодати полный (Father Frank, Full of Grace)
    Download .torrent

    Download free and at maximum speed!

    How to Download? · What is a torrent? · Ratings and Limitations

    The site does not extend and does not store electronic(digital) versions of products, and only gives access to a reference catalogue created by users on torrent-files which contain only lists of the hash-sums, the earnest entreaty, with complaints(abuse) to access directly to the user. Files for an exchange on tracker are given by users of a site, and the administration does not bear the responsibility for their maintenance. The request to not fill in the files protected by copyrights, and also files of the illegal maintenance!

    [Profile] [PM]
    Display posts from previous:    
    Reply to topic

    The time now is: Today 11:28

    All times are GMT + 3 Hours

    You cannot post new topics in this forum
    You cannot reply to topics in this forum
    You cannot edit your posts in this forum
    You cannot delete your posts in this forum
    You cannot vote in polls in this forum
    You cannot attach files in this forum
    You cannot download files in this forum