BitTorrentTracker PerecTracker.org
BitTorrentTracker PerecTracker.org
    
Регистрация  ·  Вход
 
 · 
Забыли пароль?

  • Что мы знаем про дьявола / The Devil We Know (2011) BDRip 720p

    Ответить на тему
     
    Автор Сообщение

    -sasha2006

    Создавать темы 18-Мар-2013 10:53

           

    [Цитировать]

    Что мы знаем про дьявола-Название: Что мы знаем про дьявола
    Оригинальное название: The Devil We Know (Der Teufel - Die Personifizierung des Bösen)
    Год выпуска: 2011
    Жанр: Документальный, история, культура, религия, эзотерика, искусство, исследование
    Выпущено: Канада, Великобритания, Arcadia Entertainment, Vision TV, Parthenon Entertainment
    Продолжительность: 00:42:01
    Перевод: Дублированный-Режиссер: Джессика Браун, Джон Уэстли Чишолм-О фильме: Дьявол, Князь Тьмы... Он страшен, он зол, он создает много шума, но причинить вред может только тогда, когда шагнешь в зону досягаемости его цепи... Но серьезного вреда причинить он не может, поскольку он создание. Это враг - но враг поверженный. Будьте внимательны, будьте осторожны! Но не относитесь к нему слишком серьезно... От Библии к рок-н-роллу и интернету - этот документальный фильм исследует образ Князя Тьмы в искусстве и поп-культуре. Теологи, искусствоведы и музыканты расскажут о роли дьявола в религии и других сферах жизни.-Качество: BDRip 720p
    Видео: MPEG-4 AVC, 4120 Кбит/с, 1280x720
    Аудио1: Русский (AC3, 2 ch, 192 Кбит/с)
    Аудио2: Немецкий (AC3, 6 ch, 384 Кбит/с)-Релиз от: -

    MediaInfo

    General
    Unique ID : 241611147907836412635425131740532452420 (0xB5C49D4D99DC4B74BEBC6D5FC3BA2C44)
    Complete name : D:HDCLUBDer.Teufel.2010.720p.BluRay.Rus.Ger.HDCLUB.mkv
    Format : Matroska
    File size : 1.38 GiB
    Duration : 42mn 1s
    Overall bit rate : 4 698 Kbps
    Movie name : Der Teufel (2010)
    Encoded date : UTC 2013-02-20 07:08:58
    Writing application : mkvmerge v3.2.0 ('Beginnings') built on Feb 12 2010 16:46:17
    Writing library : libebml v0.7.9 + libmatroska v0.8.1
    Video #1
    ID : 1
    Format : AVC
    Format/Info : Advanced Video Codec
    Format profile : High@L4.1
    Format settings, CABAC : Yes
    Format settings, ReFrames : 8 frames
    Format settings, GOP : M=7, N=24
    Codec ID : V_MPEG4/ISO/AVC
    Duration : 42mn 1s
    Bit rate : 4 120 Kbps
    Width : 1 280 pixels
    Height : 720 pixels
    Display aspect ratio : 16:9
    Frame rate : 25.000 fps
    Color space : YUV
    Chroma subsampling : 4:2:0
    Bit depth : 8 bits
    Scan type : Progressive
    Bits/(Pixel*Frame) : 0.179
    Stream size : 1.18 GiB (86%)
    Title : Der Teufel (2010)
    Writing library : x264 core 129 r2245 bc13772
    Encoding settings : cabac=1 / ref=8 / deblock=1:-1:-1 / analyse=0x3:0x113 / me=umh / subme=10 / psy=1 / psy_rd=1.00:0.20 / mixed_ref=1 / me_range=32 / chroma_me=1 / trellis=2 / 8x8dct=1 / cqm=0 / deadzone=21,11 / fast_pskip=0 / chroma_qp_offset=-3 / threads=12 / lookahead_threads=2 / sliced_threads=0 / nr=0 / decimate=0 / interlaced=0 / bluray_compat=0 / constrained_intra=0 / bframes=6 / b_pyramid=2 / b_adapt=2 / b_bias=0 / direct=3 / weightb=1 / open_gop=0 / weightp=2 / keyint=250 / keyint_min=25 / scenecut=40 / intra_refresh=0 / rc_lookahead=40 / rc=2pass / mbtree=0 / bitrate=4120 / ratetol=1.0 / qcomp=0.60 / qpmin=0 / qpmax=69 / qpstep=4 / cplxblur=20.0 / qblur=0.5 / vbv_maxrate=50000 / vbv_bufsize=62500 / nal_hrd=none / ip_ratio=1.40 / pb_ratio=1.30 / aq=1:1.00
    Language : German
    Audio #2
    ID : 2
    Format : AC-3
    Format/Info : Audio Coding 3
    Mode extension : CM (complete main)
    Codec ID : A_AC3
    Duration : 42mn 1s
    Bit rate mode : Constant
    Bit rate : 192 Kbps
    Channel(s) : 2 channels
    Channel positions : Front: L R
    Sampling rate : 48.0 KHz
    Bit depth : 16 bits
    Compression mode : Lossy
    Stream size : 57.7 MiB (4%)
    Title : RUSS AC3 2ch
    Language : Russian
    Audio #3
    ID : 3
    Format : AC-3
    Format/Info : Audio Coding 3
    Mode extension : CM (complete main)
    Codec ID : A_AC3
    Duration : 42mn 1s
    Bit rate mode : Constant
    Bit rate : 384 Kbps
    Channel(s) : 6 channels
    Channel positions : Front: L C R, Side: L R, LFE
    Sampling rate : 48.0 KHz
    Bit depth : 16 bits
    Compression mode : Lossy
    Stream size : 115 MiB (8%)
    Title : AC3 6 ch 384 kbps
    Language : German

    Скриншоты




    Скачать .torrent

    Скачать торрент-файл бесплатно и на максимальной скорости!

    Как скачивать? · Что такое торрент? · Рейтинг и ограничения

    !ВНИМАНИЕ!
    Сайт не распространяет и не хранит электронные версии произведений, а занимается лишь лишь предоставлением доступа к создаваемому пользователями каталогу ссылок на торрент-файлы, которые содержат только списки хеш-сумм, убедительная просьба с жалобами обращаться напрямую к пользователю. Файлы для обмена на трекере предоставлены пользователями сайта, и администрация не несёт ответственности за их содержание. Просьба не заливать файлы, защищенные авторскими правами, а также файлы нелегального содержания!


    _________________

    ░▒▓█▀▄▀▄▀▄█▓▒░
    [Профиль] [ЛС]
    Показать сообщения:    
    Ответить на тему

    Текущее время: Сегодня, в 22:29

    Часовой пояс: GMT + 2



    Вы не можете начинать темы
    Вы не можете отвечать на сообщения
    Вы не можете редактировать свои сообщения
    Вы не можете удалять свои сообщения
    Вы не можете голосовать в опросах
    Вы не можете прикреплять файлы к сообщениям
    Вы не можете скачивать файлы