BitTorrentTracker PerecTracker.org
BitTorrentTracker PerecTracker.org
    
Регистрация  ·  Вход
 
 · 
Забыли пароль?

  • Большие хлопоты из-за маленького мальчика (Александр Муратов, Вениамин Васильковский) [1967, детский, приключения, VHSRip]

    Ответить на тему
     
    Автор Сообщение

    Light

    Создавать темы 06-Апр-2015 05:12

           

    [Цитировать]

    Большие хлопоты из-за маленького мальчика
    Жанр: детский, приключения
    Год выпуска: 1967
    Продолжительность: 01:03:08
    Режиссёр: Александр Муратов, Вениамин Васильковский
    В ролях: Петя Шелест, Марина Ловейко, Татьяна Пельтцер, Владимир Алексеенко, Виктор Иванов, Аня Оржешковская, Марина Прокопенко, Игорь Чернов, Алеша Добровольский
    Описание: Пропал пятилетний Боря. К поискам ребенка подключаются работники милиции, следователь Тамара Васильевна и просто сочувствующие жители Киева. Герои побывают на киностудии, в цирке, во Дворце спорта и конечно найдут проказника.
    Семпл: http://multi-up.com/1042300
    Качество видео: VHSRip
    Формат видео: AVI
    Видео: XviD; 640х480; 4:3 ; 25.000 fps; 2009 Kbps
    Аудио: Russian; MPEG Layer 3; 48,0 KHz; 192 Kbps; 2 channels

    MediaInfo

    General
    Format : AVI
    Format/Info : Audio Video Interleave
    File size : 999 MiB
    Duration : 1h 3mn
    Overall bit rate : 2 211 Kbps
    Writing library : VirtualDub build 31953/release
    Video #0
    ID : 0
    Format : MPEG-4 Visual
    Format profile : Simple@L5
    Format settings, BVOP : No
    Format settings, QPel : No
    Format settings, GMC : No warppoints
    Format settings, Matrix : Default (H.263)
    Codec ID : XVID
    Codec ID/Hint : XviD
    Duration : 1h 3mn
    Bit rate : 2 009 Kbps
    Width : 640 pixels
    Height : 480 pixels
    Display aspect ratio : 4:3
    Frame rate : 25.000 fps
    Color space : YUV
    Chroma subsampling : 4:2:0
    Bit depth : 8 bits
    Scan type : Progressive
    Compression mode : Lossy
    Bits/(Pixel*Frame) : 0.262
    Stream size : 907 MiB (91%)
    Writing library : XviD 64
    Audio #1
    ID : 1
    Format : MPEG Audio
    Format version : Version 1
    Format profile : Layer 3
    Mode : Joint stereo
    Codec ID : 55
    Codec ID/Hint : MP3
    Duration : 1h 3mn
    Bit rate mode : Constant
    Bit rate : 192 Kbps
    Channel(s) : 2 channels
    Sampling rate : 48.0 KHz
    Compression mode : Lossy
    Stream size : 86.7 MiB (9%)
    Alignment : Split accross interleaves
    Interleave, duration : 40 ms (1.00 video frame)
    Interleave, preload duration : 500 ms

    Скриншоты







    Скачать .torrent

    Скачать торрент-файл бесплатно и на максимальной скорости!

    Как скачивать? · Что такое торрент? · Рейтинг и ограничения

    !ВНИМАНИЕ!
    Сайт не распространяет и не хранит электронные версии произведений, а занимается лишь лишь предоставлением доступа к создаваемому пользователями каталогу ссылок на торрент-файлы, которые содержат только списки хеш-сумм, убедительная просьба с жалобами обращаться напрямую к пользователю. Файлы для обмена на трекере предоставлены пользователями сайта, и администрация не несёт ответственности за их содержание. Просьба не заливать файлы, защищенные авторскими правами, а также файлы нелегального содержания!


    _________________
    [Профиль] [ЛС]
    Показать сообщения:    
    Ответить на тему

    Текущее время: Сегодня, в 08:58

    Часовой пояс: GMT + 2



    Вы не можете начинать темы
    Вы не можете отвечать на сообщения
    Вы не можете редактировать свои сообщения
    Вы не можете удалять свои сообщения
    Вы не можете голосовать в опросах
    Вы не можете прикреплять файлы к сообщениям
    Вы не можете скачивать файлы