Register  ·  Log in
Forgot password?

  • Большие хлопоты из-за маленького мальчика (Александр Муратов, Вениамин Васильковский) [1967, детский, приключения, VHSRip]

    Reply to topic
    Author Message


    Post 06-Apr-2015 06:12



    Большие хлопоты из-за маленького мальчика
    Жанр: детский, приключения
    Год выпуска: 1967
    Продолжительность: 01:03:08
    Режиссёр: Александр Муратов, Вениамин Васильковский
    В ролях: Петя Шелест, Марина Ловейко, Татьяна Пельтцер, Владимир Алексеенко, Виктор Иванов, Аня Оржешковская, Марина Прокопенко, Игорь Чернов, Алеша Добровольский
    Описание: Пропал пятилетний Боря. К поискам ребенка подключаются работники милиции, следователь Тамара Васильевна и просто сочувствующие жители Киева. Герои побывают на киностудии, в цирке, во Дворце спорта и конечно найдут проказника.
    Качество видео: VHSRip
    Формат видео: AVI
    Видео: XviD; 640х480; 4:3 ; 25.000 fps; 2009 Kbps
    Аудио: Russian; MPEG Layer 3; 48,0 KHz; 192 Kbps; 2 channels


    Format : AVI
    Format/Info : Audio Video Interleave
    File size : 999 MiB
    Duration : 1h 3mn
    Overall bit rate : 2 211 Kbps
    Writing library : VirtualDub build 31953/release
    Video #0
    ID : 0
    Format : MPEG-4 Visual
    Format profile : Simple@L5
    Format settings, BVOP : No
    Format settings, QPel : No
    Format settings, GMC : No warppoints
    Format settings, Matrix : Default (H.263)
    Codec ID : XVID
    Codec ID/Hint : XviD
    Duration : 1h 3mn
    Bit rate : 2 009 Kbps
    Width : 640 pixels
    Height : 480 pixels
    Display aspect ratio : 4:3
    Frame rate : 25.000 fps
    Color space : YUV
    Chroma subsampling : 4:2:0
    Bit depth : 8 bits
    Scan type : Progressive
    Compression mode : Lossy
    Bits/(Pixel*Frame) : 0.262
    Stream size : 907 MiB (91%)
    Writing library : XviD 64
    Audio #1
    ID : 1
    Format : MPEG Audio
    Format version : Version 1
    Format profile : Layer 3
    Mode : Joint stereo
    Codec ID : 55
    Codec ID/Hint : MP3
    Duration : 1h 3mn
    Bit rate mode : Constant
    Bit rate : 192 Kbps
    Channel(s) : 2 channels
    Sampling rate : 48.0 KHz
    Compression mode : Lossy
    Stream size : 86.7 MiB (9%)
    Alignment : Split accross interleaves
    Interleave, duration : 40 ms (1.00 video frame)
    Interleave, preload duration : 500 ms


    Download .torrent

    Download free and at maximum speed!

    How to Download? · What is a torrent? · Ratings and Limitations

    The site does not extend and does not store electronic(digital) versions of products, and only gives access to a reference catalogue created by users on torrent-files which contain only lists of the hash-sums, the earnest entreaty, with complaints(abuse) to access directly to the user. Files for an exchange on tracker are given by users of a site, and the administration does not bear the responsibility for their maintenance. The request to not fill in the files protected by copyrights, and also files of the illegal maintenance!

    [Profile] [PM]
    Display posts from previous:    
    Reply to topic

    The time now is: Today 06:45

    All times are GMT + 3 Hours

    You cannot post new topics in this forum
    You cannot reply to topics in this forum
    You cannot edit your posts in this forum
    You cannot delete your posts in this forum
    You cannot vote in polls in this forum
    You cannot attach files in this forum
    You cannot download files in this forum