BitTorrentTracker PerecTracker.org
BitTorrentTracker PerecTracker.org
    
Регистрация  ·  Вход
 
 · 
Забыли пароль?

  • Спасите наши души (Татьяна Пименова) [1987, драма, DVB]

    Ответить на тему
     
    Автор Сообщение

    Light

    Создавать темы 05-Апр-2015 20:53

           

    [Цитировать]

    Спасите наши души
    Жанр: драма
    Год выпуска: 1987
    Продолжительность: 01:08:30
    Режиссёр: Татьяна Пименова
    В ролях: Юрий Григорьев, Юрий Назаров, Олег Ворошев, Женя Пивоваров, Роман Никитин, Сережа Костин, Галина Булкина, Марина (Мария) Гаврилко, Бронислава Захарова, Алексей Золотницкий, Олеся Иванова, Татьяна Камнева, Игорь Кашинцев, Валентина Клягина, Вероника (Ника) Косенкова, Станислав Коренев, Виталий Максимов, Геннадий Петров, Любовь Соколова, Екатерина Стриженова, Ян Янакиев, В. Ярош, Антон Амзин, Сережа Батуев, Оля Зимина, Женя Маслихин, Вадим Масленников, Наташа Мокроусова, Марина Суязова, Вадим Ягодин
    Описание: Тележурналист, бывший детдомовец, собирает материал о неблагополучных детях, вникает в их проблемы и пытается им помочь.
    Доп. информация: Запись потока *.ts со спутника Ямал 402, 55° в.д., ремукс в *.mpg программой VideoReDo.
    Качество видео: DVB
    Формат видео: MPEG-PS
    Видео: MPEG2 Video, 720(768)x576 (4:3), 25,000 кадров/сек, 4425 Кбит/сек
    Аудио: MPEG Audio, 48,0 КГц, 192 Кбит/сек, 2 канала

    MediaInfo

    General
    Complete name : D:\MPG\СПАСИТЕ НАШИ ДУШИ (Zvezda 55).mpg
    Format : MPEG-PS
    File size : 2.25 GiB
    Duration : 1h 8mn
    Overall bit rate mode : Variable
    Overall bit rate : 4 711 Kbps
    Video
    ID : 224 (0xE0)
    Format : MPEG Video
    Format version : Version 2
    Format profile : Main@Main
    Format settings, BVOP : Yes
    Format settings, Matrix : Custom
    Duration : 1h 8mn
    Bit rate mode : Variable
    Bit rate : 4 425 Kbps
    Maximum bit rate : 15.0 Mbps
    Width : 720 pixels
    Height : 576 pixels
    Display aspect ratio : 4:3
    Frame rate : 25.000 fps
    Standard : PAL
    Color space : YUV
    Chroma subsampling : 4:2:0
    Bit depth : 8 bits
    Scan type : Interlaced
    Scan order : Top Field First
    Compression mode : Lossy
    Bits/(Pixel*Frame) : 0.427
    Stream size : 2.12 GiB (94%)
    Audio
    ID : 192 (0xC0)
    Format : MPEG Audio
    Format version : Version 1
    Format profile : Layer 2
    Duration : 1h 8mn
    Bit rate mode : Constant
    Bit rate : 192 Kbps
    Channel(s) : 2 channels
    Sampling rate : 48.0 KHz
    Compression mode : Lossy
    Delay relative to video : 2ms
    Stream size : 94.1 MiB (4%)

    Скриншоты

    Скачать .torrent

    Скачать торрент-файл бесплатно и на максимальной скорости!

    Как скачивать? · Что такое торрент? · Рейтинг и ограничения

    !ВНИМАНИЕ!
    Сайт не распространяет и не хранит электронные версии произведений, а занимается лишь лишь предоставлением доступа к создаваемому пользователями каталогу ссылок на торрент-файлы, которые содержат только списки хеш-сумм, убедительная просьба с жалобами обращаться напрямую к пользователю. Файлы для обмена на трекере предоставлены пользователями сайта, и администрация не несёт ответственности за их содержание. Просьба не заливать файлы, защищенные авторскими правами, а также файлы нелегального содержания!


    _________________
    [Профиль] [ЛС]
    Показать сообщения:    
    Ответить на тему

    Текущее время: Сегодня, в 14:44

    Часовой пояс: GMT + 2



    Вы не можете начинать темы
    Вы не можете отвечать на сообщения
    Вы не можете редактировать свои сообщения
    Вы не можете удалять свои сообщения
    Вы не можете голосовать в опросах
    Вы не можете прикреплять файлы к сообщениям
    Вы не можете скачивать файлы