Register  ·  Log in
Forgot password?

  • Спасите наши души (Татьяна Пименова) [1987, драма, DVB]

    Reply to topic
    Author Message


    Post 05-Apr-2015 21:53



    Спасите наши души
    Жанр: драма
    Год выпуска: 1987
    Продолжительность: 01:08:30
    Режиссёр: Татьяна Пименова
    В ролях: Юрий Григорьев, Юрий Назаров, Олег Ворошев, Женя Пивоваров, Роман Никитин, Сережа Костин, Галина Булкина, Марина (Мария) Гаврилко, Бронислава Захарова, Алексей Золотницкий, Олеся Иванова, Татьяна Камнева, Игорь Кашинцев, Валентина Клягина, Вероника (Ника) Косенкова, Станислав Коренев, Виталий Максимов, Геннадий Петров, Любовь Соколова, Екатерина Стриженова, Ян Янакиев, В. Ярош, Антон Амзин, Сережа Батуев, Оля Зимина, Женя Маслихин, Вадим Масленников, Наташа Мокроусова, Марина Суязова, Вадим Ягодин
    Описание: Тележурналист, бывший детдомовец, собирает материал о неблагополучных детях, вникает в их проблемы и пытается им помочь.
    Доп. информация: Запись потока *.ts со спутника Ямал 402, 55° в.д., ремукс в *.mpg программой VideoReDo.
    Качество видео: DVB
    Формат видео: MPEG-PS
    Видео: MPEG2 Video, 720(768)x576 (4:3), 25,000 кадров/сек, 4425 Кбит/сек
    Аудио: MPEG Audio, 48,0 КГц, 192 Кбит/сек, 2 канала


    Complete name : D:\MPG\СПАСИТЕ НАШИ ДУШИ (Zvezda 55).mpg
    Format : MPEG-PS
    File size : 2.25 GiB
    Duration : 1h 8mn
    Overall bit rate mode : Variable
    Overall bit rate : 4 711 Kbps
    ID : 224 (0xE0)
    Format : MPEG Video
    Format version : Version 2
    Format profile : Main@Main
    Format settings, BVOP : Yes
    Format settings, Matrix : Custom
    Duration : 1h 8mn
    Bit rate mode : Variable
    Bit rate : 4 425 Kbps
    Maximum bit rate : 15.0 Mbps
    Width : 720 pixels
    Height : 576 pixels
    Display aspect ratio : 4:3
    Frame rate : 25.000 fps
    Standard : PAL
    Color space : YUV
    Chroma subsampling : 4:2:0
    Bit depth : 8 bits
    Scan type : Interlaced
    Scan order : Top Field First
    Compression mode : Lossy
    Bits/(Pixel*Frame) : 0.427
    Stream size : 2.12 GiB (94%)
    ID : 192 (0xC0)
    Format : MPEG Audio
    Format version : Version 1
    Format profile : Layer 2
    Duration : 1h 8mn
    Bit rate mode : Constant
    Bit rate : 192 Kbps
    Channel(s) : 2 channels
    Sampling rate : 48.0 KHz
    Compression mode : Lossy
    Delay relative to video : 2ms
    Stream size : 94.1 MiB (4%)


    Download .torrent

    Download free and at maximum speed!

    How to Download? · What is a torrent? · Ratings and Limitations

    The site does not extend and does not store electronic(digital) versions of products, and only gives access to a reference catalogue created by users on torrent-files which contain only lists of the hash-sums, the earnest entreaty, with complaints(abuse) to access directly to the user. Files for an exchange on tracker are given by users of a site, and the administration does not bear the responsibility for their maintenance. The request to not fill in the files protected by copyrights, and also files of the illegal maintenance!

    [Profile] [PM]
    Display posts from previous:    
    Reply to topic

    The time now is: Today 04:23

    All times are GMT + 3 Hours

    You cannot post new topics in this forum
    You cannot reply to topics in this forum
    You cannot edit your posts in this forum
    You cannot delete your posts in this forum
    You cannot vote in polls in this forum
    You cannot attach files in this forum
    You cannot download files in this forum