BitTorrentTracker PerecTracker.org
BitTorrentTracker PerecTracker.org
    
Регистрация  ·  Вход
 
 · 
Забыли пароль?

  • Тайна рукописного Корана (Рафаэль Гаспарянц) [1990, драма, исторический фильм, VHSRip]

    Ответить на тему
     
    Автор Сообщение

    Light

    Создавать темы 05-Апр-2015 20:53

           

    [Цитировать]

    Тайна рукописного Корана
    Жанр: драма, исторический фильм
    Год выпуска: 1990
    Продолжительность: 01:26:03
    Режиссёр: Рафаэль Гаспарянц
    В ролях: Джейхун Кулиев, Баганд Магомедов, Тамилла Карантинаки, Барасби Мулаев, Мустафа Ибрагимов, Дагун Омаев, Муса Дудаев, Рупат Чараков, Яхья Магомедов, Наби Ибрагимов, Патимат Кагирова, Анвер Багиров, Скандерберг Тулпаров, Юсуп Мустапаев, Хан Баширов, Имам Биболатов, Муса Зубайруев, Артур Секинаев
    Описание: Основан на произведении народного писателя Дагестана Ахмедхана Абу-Бакара. Отражает события, происходившие в период революции и гражданской войны в Дагестане. Главный герой ее смелый и отважный Хасан встал во главе горцев, поднявшихся на борьбу за свободу и справедливость.
    Семпл: https://www.sendspace.com/file/m6lz6t
    Качество видео: VHSRip
    Формат видео: AVI
    Видео: xvid at 1656 Кбит/сек Aspect : 640 x 480 (1.333) at 25.000 fps
    Аудио: MPEG Audio at 128 Кбит/сек Infos : 2 канала, 44,1 КГц

    MediaInfo

    Общее
    Полное имя : E:\Тайна рукописного Kорана.1990.avi
    Формат : AVI
    Формат/Информация : Audio Video Interleave
    Размер файла : 1,08 Гбайт
    Продолжительность : 1 ч. 26 м.
    Общий поток : 1796 Кбит/сек
    Библиотека кодирования : The File had been created by Solveig Multimedia AVI Writer
    Видео
    Идентификатор : 0
    Формат : xvid
    Идентификатор кодека : xvid
    Продолжительность : 1 ч. 26 м.
    Битрейт : 1656 Кбит/сек
    Ширина : 640 пикселей
    Высота : 480 пикселей
    Соотношение сторон : 4:3
    Частота кадров : 25,000 кадров/сек
    Бит/(Пиксели*Кадры) : 0.216
    Размер потока : 1019 Мбайт (92%)
    Аудио
    Идентификатор : 1
    Формат : MPEG Audio
    Версия формата : Version 1
    Профиль формата : Layer 3
    Режим : Joint stereo
    Расширение режима : MS Stereo
    Идентификатор кодека : 55
    Идентификатор кодека/Подсказка : MP3
    Продолжительность : 1 ч. 26 м.
    Вид битрейта : Постоянный
    Битрейт : 128 Кбит/сек
    Каналы : 2 канала
    Частота : 44,1 КГц
    Метод сжатия : С потерями
    Размер потока : 78,8 Мбайт (7%)
    Выравнивание : Разделение по промежуткам
    Продолжительность промежутка : 26 мс. (0,65 видеокадр)

    Скриншоты

    Скачать .torrent

    Скачать торрент-файл бесплатно и на максимальной скорости!

    Как скачивать? · Что такое торрент? · Рейтинг и ограничения

    !ВНИМАНИЕ!
    Сайт не распространяет и не хранит электронные версии произведений, а занимается лишь лишь предоставлением доступа к создаваемому пользователями каталогу ссылок на торрент-файлы, которые содержат только списки хеш-сумм, убедительная просьба с жалобами обращаться напрямую к пользователю. Файлы для обмена на трекере предоставлены пользователями сайта, и администрация не несёт ответственности за их содержание. Просьба не заливать файлы, защищенные авторскими правами, а также файлы нелегального содержания!


    _________________
    [Профиль] [ЛС]
    Показать сообщения:    
    Ответить на тему

    Текущее время: Сегодня, в 20:35

    Часовой пояс: GMT + 2



    Вы не можете начинать темы
    Вы не можете отвечать на сообщения
    Вы не можете редактировать свои сообщения
    Вы не можете удалять свои сообщения
    Вы не можете голосовать в опросах
    Вы не можете прикреплять файлы к сообщениям
    Вы не можете скачивать файлы