BitTorrentTracker PerecTracker.org
BitTorrentTracker PerecTracker.org
    
Регистрация  ·  Вход
 
 · 
Забыли пароль?

  • Пришельцы / Посетители / Extraterrestrial (Колин Минихан / Colin Minihan) [2014, Канада, ужасы, фантастика, HDRip] MVO (ViruseProject)

    Ответить на тему
     
    Автор Сообщение

    Light

    Создавать темы 05-Апр-2015 20:53

           

    [Цитировать]

    Пришельцы / Посетители / Extraterrestrial
    Страна: Канада
    Жанр: ужасы, фантастика
    Год выпуска: 2014
    Продолжительность: 01:40:29
    Перевод: Любительский (многоголосый закадровый) [ViruseProject]
    Cубтитры: нет
    Оригинальная аудиодорожка: нет
    Режиссер: олин Минихан / Colin Minihan
    В ролях: Бриттани Аллен, Фредди Строма, Мелани Папалиа, Джесси Мосс, Аня Савчич, Джил Беллоуз, Майкл Айронсайд, Шон Роджерсон, Эмили Перкинс, Майк Ковач
    Описание: Человечество давно подозревает, что не одиноко во Вселенной. Загадочные вспышки в ночном небе, летательные аппараты явно неземного происхождения, таинственные исчезновения людей — это ли не свидетельства существования иного разума? Многие с нетерпением ждут встречи с представителями внеземной цивилизации. А вдруг они давно уже здесь? И по соглашению с правительством используют Землю как большой полигон для научных экспериментов? Тогда главное — не вмешиваться.

    Качество видео: HDRip (Исх. BDRip 720p)
    Формат видео: AVI
    Видео: 720x304 (2.37:1), 23.976 fps, XviD build 73 ~1677 kbps avg, 0.32 bit/pixel
    Аудио: 48 kHz, AC3 Dolby Digital, 3/2 (L,C,R,l,r) + LFE ch, ~384.00 kbps avg

    MediaInfo

    Общее
    Полное имя : S:ФильмыПришельцы (Посетители). 2014. HDRip. 1.45 (AleksSin).avi
    Формат : AVI
    Формат/Информация : Audio Video Interleave
    Размер файла : 1,45 Гбайт
    Продолжительность : 1 ч. 40 м.
    Общий поток : 2071 Кбит/сек
    Программа кодирования : VirtualDubMod 1.5.10.3 | www.virtualdub-fr.org || (build 2550/release)
    Библиотека кодирования : VirtualDubMod build 2550/release
    Видео
    Идентификатор : 0
    Формат : MPEG-4 Visual
    Профиль формата : Advanced Simple@L5
    Параметр BVOP формата : 1
    Параметр QPel формата : Нет
    Параметр GMC формата : Без точки перехода
    Параметр матрицы формата : Выборочная
    Идентификатор кодека : XVID
    Идентификатор кодека/Подсказка : XviD
    Продолжительность : 1 ч. 40 м.
    Битрейт : 1677 Кбит/сек
    Ширина : 720 пикс.
    Высота : 304 пикс.
    Соотношение сторон : 2,35:1
    Частота кадров : 23,976 кадр/сек
    Цветовое пространство : YUV
    Подвыборка цветности : 4:2:0
    Битовая глубина : 8 бит
    Тип развёртки : Прогрессивная
    Метод сжатия : С потерями
    Бит/(Пиксели*Кадры) : 0.320
    Размер потока : 1,18 Гбайт (81%)
    Библиотека кодирования : XviD 73
    Аудио
    Идентификатор : 1
    Формат : AC-3
    Формат/Информация : Audio Coding 3
    Расширение режима : CM (complete main)
    Идентификатор кодека : 2000
    Продолжительность : 1 ч. 40 м.
    Вид битрейта : Постоянный
    Битрейт : 384 Кбит/сек
    Каналы : 6 каналов
    Расположение каналов : Front: L C R, Side: L R, LFE
    Частота : 48,0 КГц
    Битовая глубина : 16 бит
    Метод сжатия : С потерями
    Размер потока : 276 Мбайт (19%)
    Выравнивание : Разделение по промежуткам
    Продолжительность промежутка : 42 мс. (1,00 видеокадр)
    Время предзагрузки промежутка : 500 ms

    Скриншот c названием фильма

    Скриншоты

    Скачать .torrent

    Скачать торрент-файл бесплатно и на максимальной скорости!

    Как скачивать? · Что такое торрент? · Рейтинг и ограничения

    !ВНИМАНИЕ!
    Сайт не распространяет и не хранит электронные версии произведений, а занимается лишь лишь предоставлением доступа к создаваемому пользователями каталогу ссылок на торрент-файлы, которые содержат только списки хеш-сумм, убедительная просьба с жалобами обращаться напрямую к пользователю. Файлы для обмена на трекере предоставлены пользователями сайта, и администрация не несёт ответственности за их содержание. Просьба не заливать файлы, защищенные авторскими правами, а также файлы нелегального содержания!


    _________________
    [Профиль] [ЛС]
    Показать сообщения:    
    Ответить на тему

    Текущее время: Сегодня, в 00:23

    Часовой пояс: GMT + 2



    Вы не можете начинать темы
    Вы не можете отвечать на сообщения
    Вы не можете редактировать свои сообщения
    Вы не можете удалять свои сообщения
    Вы не можете голосовать в опросах
    Вы не можете прикреплять файлы к сообщениям
    Вы не можете скачивать файлы