BitTorrentTracker PerecTracker.org
BitTorrentTracker PerecTracker.org
    
Регистрация  ·  Вход
 
 · 
Забыли пароль?

  • Исход: Цари и боги / Exodus: Gods and Kings (Ридли Скотт / Ridley Scott) [2014, США, Боевик, драма, приключения, BDRip] Dub + Original (Eng) + Subs (Rus, Ukr, Eng)

    Ответить на тему
     
    Автор Сообщение

    Light

    Создавать темы 05-Апр-2015 20:53

           

    [Цитировать]

    Исход: Цари и боги / Exodus: Gods and Kings
    «Он бросил вызов империи и изменил мир»
    -Год выпуска: 2014
    Выпущено: Великобритания, США, Испания / Chernin Entertainment, Scott Free Productions
    Жанр: боевик, драма, приключения
    Продолжительность: 02:30:20
    Перевод: Профессиональный (полное дублирование) BD EUR
    Cубтитры: Русские (полные + форсированные), Украинские, Английские (полные + SDH) (внешние .srt*)
    Оригинальная дорожка: Английская-Режиссер:
    Ридли Скотт / Ridley Scott-В ролях:
    Кристиан Бэйл (Moses), Джоэл Эдгертон (Ramses), Джон Туртурро (Seti), Аарон Пол (Joshua), Бен Мендельсон (Viceroy Hegep), Мария Вальверде (Zipporah), Сигурни Уивер (Tuya), Бен Кингсли (Nun), Хиам Аббасс (Bithia), Исаак Эндрюс (Malak), Юэн Бремнер (Expert), Индира Варма (High Priestess)-Описание:
    Ветхозаветная история о великом пророке Моисее и освобождении еврейского народа из египетского плена. Моисей появился на свет в те времена, когда фараон приказал убивать всех новорожденных мальчиков еврейского происхождения. Чтобы спасти его, мать положила малыша в корзину из тростника и отправила вниз по Нилу. Ребенка нашла дочь фараона, которая усыновила его и растила рядом с Рамсесом — будущим фараоном. Много лет спустя, став мужчиной, Моисей бежит из Египта, а затем возвращается туда по велению Господа, чтобы избавить свой народ от оков рабства…-Релиз групп
    | | IMDB | КиноПоиск | Сэмпл |-Качество: BDRip [BDRemux | 1080p | HDCLUB]
    Формат: AVI
    Видео: 720x304 (2.37:1), 23.976 fps, XviD build 73 ~1994 kbps avg, 0.38 bit/pixel
    Аудио #1: 48 kHz, AC3 Dolby Digital, 3/2 (L,C,R,l,r) + LFE ch, ~384.00 kbps avg (RUS)
    Аудио #2: 48 kHz, AC3 Dolby Digital, 3/2 (L,C,R,l,r) + LFE ch, ~384.00 kbps avg (ENG)-

    Скриншоты

    MediaInfo

    General
    Complete name                            : D:\Ishod_Tsari_i_Bogi_2014_BDRip_[2.91]_by_Dalemake.avi
    Format                                   : AVI
    Format/Info                              : Audio Video Interleave
    Format profile                           : OpenDML
    File size                                : 2.91 GiB
    Duration                                 : 2h 30mn
    Overall bit rate                         : 2 769 Kbps
    Writing application                      : VirtualDubMod 1.5.10.3 | www.virtualdub-fr.org || (build 2550/release)
    Writing library                          : VirtualDubMod build 2550/release
    Video
    ID                                       : 0
    Format                                   : MPEG-4 Visual
    Format profile                           : Advanced Simple@L5
    Format settings, BVOP                    : 2
    Format settings, QPel                    : No
    Format settings, GMC                     : No warppoints
    Format settings, Matrix                  : Custom
    Codec ID                                 : XVID
    Codec ID/Hint                            : XviD
    Duration                                 : 2h 30mn
    Bit rate                                 : 1 985 Kbps
    Width                                    : 720 pixels
    Height                                   : 304 pixels
    Display aspect ratio                     : 2.35:1
    Frame rate                               : 23.976 fps
    Color space                              : YUV
    Chroma subsampling                       : 4:2:0
    Bit depth                                : 8 bits
    Scan type                                : Progressive
    Compression mode                         : Lossy
    Bits/(Pixel*Frame)                       : 0.378
    Stream size                              : 2.08 GiB (72%)
    Writing library                          : XviD 73
    Audio #1
    ID                                       : 1
    Format                                   : AC-3
    Format/Info                              : Audio Coding 3
    Mode extension                           : CM (complete main)
    Format settings, Endianness              : Big
    Codec ID                                 : 2000
    Duration                                 : 2h 30mn
    Bit rate mode                            : Constant
    Bit rate                                 : 384 Kbps
    Channel(s)                               : 6 channels
    Channel positions                        : Front: L C R, Side: L R, LFE
    Sampling rate                            : 48.0 KHz
    Bit depth                                : 16 bits
    Compression mode                         : Lossy
    Stream size                              : 413 MiB (14%)
    Alignment                                : Split accross interleaves
    Interleave, duration                     : 42 ms (1.00 video frame)
    Interleave, preload duration             : 500 ms
    Audio #2
    ID                                       : 2
    Format                                   : AC-3
    Format/Info                              : Audio Coding 3
    Mode extension                           : CM (complete main)
    Format settings, Endianness              : Big
    Codec ID                                 : 2000
    Duration                                 : 2h 30mn
    Bit rate mode                            : Constant
    Bit rate                                 : 384 Kbps
    Channel(s)                               : 6 channels
    Channel positions                        : Front: L C R, Side: L R, LFE
    Sampling rate                            : 48.0 KHz
    Bit depth                                : 16 bits
    Compression mode                         : Lossy
    Stream size                              : 413 MiB (14%)
    Alignment                                : Split accross interleaves
    Interleave, duration                     : 42 ms (1.00 video frame)
    Interleave, preload duration             : 500 ms
    -
    Скачать .torrent

    Скачать торрент-файл бесплатно и на максимальной скорости!

    Как скачивать? · Что такое торрент? · Рейтинг и ограничения

    !ВНИМАНИЕ!
    Сайт не распространяет и не хранит электронные версии произведений, а занимается лишь лишь предоставлением доступа к создаваемому пользователями каталогу ссылок на торрент-файлы, которые содержат только списки хеш-сумм, убедительная просьба с жалобами обращаться напрямую к пользователю. Файлы для обмена на трекере предоставлены пользователями сайта, и администрация не несёт ответственности за их содержание. Просьба не заливать файлы, защищенные авторскими правами, а также файлы нелегального содержания!


    _________________
    [Профиль] [ЛС]
    Показать сообщения:    
    Ответить на тему

    Текущее время: Сегодня, в 02:58

    Часовой пояс: GMT + 2



    Вы не можете начинать темы
    Вы не можете отвечать на сообщения
    Вы не можете редактировать свои сообщения
    Вы не можете удалять свои сообщения
    Вы не можете голосовать в опросах
    Вы не можете прикреплять файлы к сообщениям
    Вы не можете скачивать файлы