BitTorrentTracker PerecTracker.org
BitTorrentTracker PerecTracker.org
    
Регистрация  ·  Вход
 
 · 
Забыли пароль?

  • Весна / Spring (Джастин Бенсон, Аарон Мурхед / Justin Benson, Aaron Moorhead) [2014, США, драма, фантастика, HDRip] DVO (2D)

    Ответить на тему
     
    Автор Сообщение

    Light

    Создавать темы 05-Апр-2015 20:53

           

    [Цитировать]

    Весна / Spring
    Страна: США
    Жанр: драма, фантастика
    Год выпуска: 2014
    Продолжительность: 01:49:37
    Перевод: Любительский (двухголосый закадровый) 2D
    Cубтитры: нет
    Оригинальная аудиодорожка: нет
    Режиссер: Джастин Бенсон, Аарон Мурхед / Justin Benson, Aaron Moorhead
    В ролях: Лу Тэйлор Пуччи, Надиа Хилкер, Ванесса Беднар, Шэйн Брэйди, Франческо Карнелутти, Винни Каррен, Оджи Дьюк, Джереми Гарднер
    Описание: Фильм о молодом парне, который покидает Южную Калифорнию и отправляется в Италию, где закручивает бурный роман с женщиной, у которой есть темные тайны…

    Доп. информация:
    Перевод: Antonio
    Сэмпл: http://multi-up.com/1041824
    Качество видео: HDRip
    Формат видео: AVI
    Видео: Xvid 720x304 24.00fps 727Kbps
    Аудио: Dolby AC3 48000Hz stereo 192Kbps

    MediaInfo

    General
    Complete name : D:\TORRENTS\Весна.DVO.avi
    Format : AVI
    Format/Info : Audio Video Interleave
    File size : 728 MiB
    Duration : 1h 49mn
    Overall bit rate : 929 Kbps
    Video
    ID : 0
    Format : MPEG-4 Visual
    Format profile : Advanced Simple@L5
    Format settings, BVOP : 2
    Format settings, QPel : No
    Format settings, GMC : No warppoints
    Format settings, Matrix : Default (H.263)
    Codec ID : XVID
    Codec ID/Hint : XviD
    Duration : 1h 49mn
    Bit rate : 728 Kbps
    Width : 720 pixels
    Height : 304 pixels
    Display aspect ratio : 2.35:1
    Frame rate : 24.000 fps
    Color space : YUV
    Chroma subsampling : 4:2:0
    Bit depth : 8 bits
    Scan type : Progressive
    Compression mode : Lossy
    Bits/(Pixel*Frame) : 0.139
    Stream size : 571 MiB (78%)
    Writing library : XviD 64
    Audio
    ID : 1
    Format : AC-3
    Format/Info : Audio Coding 3
    Mode extension : CM (complete main)
    Format settings, Endianness : Big
    Codec ID : 2000
    Duration : 1h 49mn
    Source duration : 1h 49mn
    Bit rate mode : Constant
    Bit rate : 192 Kbps
    Channel(s) : 2 channels
    Channel positions : Front: L R
    Sampling rate : 48.0 KHz
    Bit depth : 16 bits
    Compression mode : Lossy
    Stream size : 151 MiB (21%)
    Alignment : Aligned on interleaves
    Interleave, duration : 42 ms (1.00 video frame)

    Скриншот c названием фильма

    Скриншоты

    Скачать .torrent

    Скачать торрент-файл бесплатно и на максимальной скорости!

    Как скачивать? · Что такое торрент? · Рейтинг и ограничения

    !ВНИМАНИЕ!
    Сайт не распространяет и не хранит электронные версии произведений, а занимается лишь лишь предоставлением доступа к создаваемому пользователями каталогу ссылок на торрент-файлы, которые содержат только списки хеш-сумм, убедительная просьба с жалобами обращаться напрямую к пользователю. Файлы для обмена на трекере предоставлены пользователями сайта, и администрация не несёт ответственности за их содержание. Просьба не заливать файлы, защищенные авторскими правами, а также файлы нелегального содержания!


    _________________
    [Профиль] [ЛС]
    Показать сообщения:    
    Ответить на тему

    Текущее время: Сегодня, в 17:53

    Часовой пояс: GMT + 2



    Вы не можете начинать темы
    Вы не можете отвечать на сообщения
    Вы не можете редактировать свои сообщения
    Вы не можете удалять свои сообщения
    Вы не можете голосовать в опросах
    Вы не можете прикреплять файлы к сообщениям
    Вы не можете скачивать файлы