Register  ·  Log in
Forgot password?

  • Весна / Spring (Джастин Бенсон, Аарон Мурхед / Justin Benson, Aaron Moorhead) [2014, США, драма, фантастика, HDRip] DVO (2D)

    Reply to topic
    Author Message


    Post 05-Apr-2015 21:53



    Весна / Spring
    Страна: США
    Жанр: драма, фантастика
    Год выпуска: 2014
    Продолжительность: 01:49:37
    Перевод: Любительский (двухголосый закадровый) 2D
    Cубтитры: нет
    Оригинальная аудиодорожка: нет
    Режиссер: Джастин Бенсон, Аарон Мурхед / Justin Benson, Aaron Moorhead
    В ролях: Лу Тэйлор Пуччи, Надиа Хилкер, Ванесса Беднар, Шэйн Брэйди, Франческо Карнелутти, Винни Каррен, Оджи Дьюк, Джереми Гарднер
    Описание: Фильм о молодом парне, который покидает Южную Калифорнию и отправляется в Италию, где закручивает бурный роман с женщиной, у которой есть темные тайны…

    Доп. информация:
    Перевод: Antonio
    Качество видео: HDRip
    Формат видео: AVI
    Видео: Xvid 720x304 24.00fps 727Kbps
    Аудио: Dolby AC3 48000Hz stereo 192Kbps


    Complete name : D:\TORRENTS\Весна.DVO.avi
    Format : AVI
    Format/Info : Audio Video Interleave
    File size : 728 MiB
    Duration : 1h 49mn
    Overall bit rate : 929 Kbps
    ID : 0
    Format : MPEG-4 Visual
    Format profile : Advanced Simple@L5
    Format settings, BVOP : 2
    Format settings, QPel : No
    Format settings, GMC : No warppoints
    Format settings, Matrix : Default (H.263)
    Codec ID : XVID
    Codec ID/Hint : XviD
    Duration : 1h 49mn
    Bit rate : 728 Kbps
    Width : 720 pixels
    Height : 304 pixels
    Display aspect ratio : 2.35:1
    Frame rate : 24.000 fps
    Color space : YUV
    Chroma subsampling : 4:2:0
    Bit depth : 8 bits
    Scan type : Progressive
    Compression mode : Lossy
    Bits/(Pixel*Frame) : 0.139
    Stream size : 571 MiB (78%)
    Writing library : XviD 64
    ID : 1
    Format : AC-3
    Format/Info : Audio Coding 3
    Mode extension : CM (complete main)
    Format settings, Endianness : Big
    Codec ID : 2000
    Duration : 1h 49mn
    Source duration : 1h 49mn
    Bit rate mode : Constant
    Bit rate : 192 Kbps
    Channel(s) : 2 channels
    Channel positions : Front: L R
    Sampling rate : 48.0 KHz
    Bit depth : 16 bits
    Compression mode : Lossy
    Stream size : 151 MiB (21%)
    Alignment : Aligned on interleaves
    Interleave, duration : 42 ms (1.00 video frame)

    Скриншот c названием фильма


    Download .torrent

    Download free and at maximum speed!

    How to Download? · What is a torrent? · Ratings and Limitations

    The site does not extend and does not store electronic(digital) versions of products, and only gives access to a reference catalogue created by users on torrent-files which contain only lists of the hash-sums, the earnest entreaty, with complaints(abuse) to access directly to the user. Files for an exchange on tracker are given by users of a site, and the administration does not bear the responsibility for their maintenance. The request to not fill in the files protected by copyrights, and also files of the illegal maintenance!

    [Profile] [PM]
    Display posts from previous:    
    Reply to topic

    The time now is: Today 13:17

    All times are GMT + 3 Hours

    You cannot post new topics in this forum
    You cannot reply to topics in this forum
    You cannot edit your posts in this forum
    You cannot delete your posts in this forum
    You cannot vote in polls in this forum
    You cannot attach files in this forum
    You cannot download files in this forum