BitTorrentTracker PerecTracker.org
BitTorrentTracker PerecTracker.org
    
Регистрация  ·  Вход
 
 · 
Забыли пароль?

  • Самый жестокий год / A Most Violent Year (Джей Си Чендор / J.C. Chandor) [2014, США, боевик, триллер, драма, криминал, HDRip] DVO + Original Eng

    Ответить на тему
     
    Автор Сообщение

    Light

    Создавать темы 05-Апр-2015 20:53

           

    [Цитировать]

    --Самый жестокий год / A Most Violent Year--«The result is never in question, just the path you take to get there»-Страна: США
    Жанр: боевик, триллер, драма, криминал
    Год выпуска: 2014
    Продолжительность: 02:04:56-Перевод: Любительский (двухголосый закадровый) Антон Емельянов & Анастасия Снегирёва
    Cубтитры: нет
    Оригинальная аудиодорожка: английский-Режиссер: Джей Си Чендор / J.C. Chandor-В ролях: Оскар Айзек, Джессика Честейн, Дэвид Ойелоуо, Алессандро Нивола, Альберт Брукс, Элиес Габел, Каталина Сандино Морено, Питер Герети, Кристофер Эбботт, Эшли Уильямс
    Описание: События фильма разворачиваются преимущественно на Манхэттене начала 1980-х годов, когда был зафиксирован всплеск уровня преступности. Главный герой — иммигрант из латинской Америки, прибывший в США с амбициозными мечтами и вскоре действительно добившийся большого успеха в бизнесе. Однако уличная преступность, охватившая Нью-Йорк, коррупция и моральное разложение создают для него и его семьи большие проблемы.-| Сэмпл | IMDB | КиноПоиск |-Качество видео: HDRip
    Формат видео: AVI
    Видео: 720x304 (2.37:1), 23.976 fps, XviD build 50 ~1656 kbps avg, 0.32 bit/pixel
    Аудио: 48 kHz, AC3 Dolby Digital, 3/2 (L,C,R,l,r) + LFE ch, ~448 kbps (RUS)
    Аудио 2: 48 kHz, AC3 Dolby Digital, 3/2 (L,C,R,l,r) + LFE ch, ~256 kbps (ENG)

    MediaInfo

    Общее
    Полное имя : E:\MOVIES\A.Most.Violent.Year.2014.L2.HDRip.avi
    Формат : AVI
    Формат/Информация : Audio Video Interleave
    Профиль формата : OpenDML
    Размер файла : 2,07 Гбайт
    Продолжительность : 2 ч. 4 м.
    Общий поток : 2367 Кбит/сек
    Программа кодирования : VirtualDubMod 1.5.10.2 (build 2540/release)
    Библиотека кодирования : VirtualDubMod build 2540/release
    Видео
    Идентификатор : 0
    Формат : MPEG-4 Visual
    Профиль формата : Advanced Simple@L5
    Параметр BVOP формата : 2
    Параметр QPel формата : Нет
    Параметр GMC формата : Без точки перехода
    Параметр матрицы формата : Default (MPEG)
    Идентификатор кодека : XVID
    Идентификатор кодека/Подсказка : XviD
    Продолжительность : 2 ч. 4 м.
    Битрейт : 1644 Кбит/сек
    Ширина : 720 пикселей
    Высота : 304 пикселя
    Соотношение сторон : 2,35:1
    Частота кадров : 23,976 кадра/сек
    Цветовое пространство : YUV
    Субдискретизация насыщенности : 4:2:0
    Битовая глубина : 8 бит
    Тип развёртки : Прогрессивная
    Метод сжатия : С потерями
    Бит/(Пиксели*Кадры) : 0.313
    Размер потока : 1,44 Гбайт (69%)
    Библиотека кодирования : XviD 1.2.1 (UTC 2008-12-04)
    Аудио #1
    Идентификатор : 1
    Формат : AC-3
    Формат/Информация : Audio Coding 3
    Расширение режима : CM (complete main)
    Параметр Endianness формата : Big
    Идентификатор кодека : 2000
    Продолжительность : 2 ч. 4 м.
    Вид битрейта : Постоянный
    Битрейт : 448 Кбит/сек
    Каналы : 6 каналов
    Расположение каналов : Front: L C R, Side: L R, LFE
    Частота : 48,0 КГц
    Битовая глубина : 16 бит
    Метод сжатия : С потерями
    Размер потока : 400 Мбайт (19%)
    Выравнивание : Разделение по промежуткам
    Продолжительность промежутка : 42 мс. (1,00 видеокадр)
    Время предзагрузки промежутка : 500 мс.
    Аудио #2
    Идентификатор : 2
    Формат : AC-3
    Формат/Информация : Audio Coding 3
    Расширение режима : CM (complete main)
    Параметр Endianness формата : Big
    Идентификатор кодека : 2000
    Продолжительность : 2 ч. 4 м.
    Вид битрейта : Постоянный
    Битрейт : 256 Кбит/сек
    Каналы : 6 каналов
    Расположение каналов : Front: L C R, Side: L R, LFE
    Частота : 48,0 КГц
    Битовая глубина : 16 бит
    Метод сжатия : С потерями
    Размер потока : 229 Мбайт (11%)
    Выравнивание : Разделение по промежуткам
    Продолжительность промежутка : 42 мс. (1,00 видеокадр)
    Время предзагрузки промежутка : 500 мс.

    Скриншот c названием фильма

    Скриншоты

    Скачать .torrent

    Скачать торрент-файл бесплатно и на максимальной скорости!

    Как скачивать? · Что такое торрент? · Рейтинг и ограничения

    !ВНИМАНИЕ!
    Сайт не распространяет и не хранит электронные версии произведений, а занимается лишь лишь предоставлением доступа к создаваемому пользователями каталогу ссылок на торрент-файлы, которые содержат только списки хеш-сумм, убедительная просьба с жалобами обращаться напрямую к пользователю. Файлы для обмена на трекере предоставлены пользователями сайта, и администрация не несёт ответственности за их содержание. Просьба не заливать файлы, защищенные авторскими правами, а также файлы нелегального содержания!


    _________________
    [Профиль] [ЛС]
    Показать сообщения:    
    Ответить на тему

    Текущее время: Сегодня, в 05:59

    Часовой пояс: GMT + 2



    Вы не можете начинать темы
    Вы не можете отвечать на сообщения
    Вы не можете редактировать свои сообщения
    Вы не можете удалять свои сообщения
    Вы не можете голосовать в опросах
    Вы не можете прикреплять файлы к сообщениям
    Вы не можете скачивать файлы