Register  ·  Log in
Forgot password?

  • Игра в имитацию / The Imitation Game (Мортен Тильдум / Morten Tyldum) [2014, Великобритания, Триллер, драма, военный, биография, BDRip] Dub

    Reply to topic
    Author Message


    Post 05-Apr-2015 21:52



    Игра в имитацию / The Imitation Game
    «Основано на невероятной, но реальной истории»
    -Год выпуска: 2014
    Выпущено: Великобритания, США / Black Bear Pictures
    Жанр: триллер, драма, военный, биография
    Продолжительность: 01:54:13
    Перевод: Профессиональный (полное дублирование) R5
    Cубтитры: нет-Режиссер:
    Мортен Тильдум / Morten Tyldum-В ролях:
    Бенедикт Камбербэтч (Alan Turing), Кира Найтли (Joan Clarke), Мэттью Гуд (Hugh Alexander), Рори Киннер (Detective Robert Nock), Аллен Лич (John Cairncross), Мэттью Бирд (Peter Hilton), Чарльз Дэнс (Commander Denniston), Марк Стронг (Stewart Menzies), Джеймс Норткот (Jack Good), Том Гудман-Хилл (Sergeant Staehl)-Описание:
    Английский математик и логик Алан Тьюринг помогает взломать код Enigma во время Второй мировой войны.-Релиз групп
    | | IMDB | КиноПоиск | Сэмпл |-Качество: BDRip [BDRemux | 1080p | HDCLUB]
    Формат: AVI
    Видео: 720x304 (2.37:1), 23.976 fps, XviD build 73 ~1434 kbps avg, 0.27 bit/pixel
    Аудио: 48 kHz, AC3 Dolby Digital, 3/2 (L,C,R,l,r) + LFE ch, ~384.00 kbps avg-



    Complete name                            : D:\Igra_v_imitaciu_2014_BDRip_by_Dalemake.avi
    Format                                   : AVI
    Format/Info                              : Audio Video Interleave
    File size                                : 1.46 GiB
    Duration                                 : 1h 54mn
    Overall bit rate                         : 1 828 Kbps
    Writing application                      : VirtualDubMod | || (build 2550/release)
    Writing library                          : VirtualDubMod build 2550/release
    ID                                       : 0
    Format                                   : MPEG-4 Visual
    Format profile                           : Advanced Simple@L5
    Format settings, BVOP                    : 1
    Format settings, QPel                    : No
    Format settings, GMC                     : No warppoints
    Format settings, Matrix                  : Custom
    Codec ID                                 : XVID
    Codec ID/Hint                            : XviD
    Duration                                 : 1h 54mn
    Bit rate                                 : 1 434 Kbps
    Width                                    : 720 pixels
    Height                                   : 304 pixels
    Display aspect ratio                     : 2.35:1
    Frame rate                               : 23.976 fps
    Color space                              : YUV
    Chroma subsampling                       : 4:2:0
    Bit depth                                : 8 bits
    Scan type                                : Progressive
    Compression mode                         : Lossy
    Bits/(Pixel*Frame)                       : 0.273
    Stream size                              : 1.14 GiB (78%)
    Writing library                          : XviD 73
    ID                                       : 1
    Format                                   : AC-3
    Format/Info                              : Audio Coding 3
    Mode extension                           : CM (complete main)
    Format settings, Endianness              : Big
    Codec ID                                 : 2000
    Duration                                 : 1h 54mn
    Bit rate mode                            : Constant
    Bit rate                                 : 384 Kbps
    Channel(s)                               : 6 channels
    Channel positions                        : Front: L C R, Side: L R, LFE
    Sampling rate                            : 48.0 KHz
    Bit depth                                : 16 bits
    Compression mode                         : Lossy
    Stream size                              : 314 MiB (21%)
    Alignment                                : Split accross interleaves
    Interleave, duration                     : 42 ms (1.00 video frame)
    Interleave, preload duration             : 500 ms
    Download .torrent

    Download free and at maximum speed!

    How to Download? · What is a torrent? · Ratings and Limitations

    The site does not extend and does not store electronic(digital) versions of products, and only gives access to a reference catalogue created by users on torrent-files which contain only lists of the hash-sums, the earnest entreaty, with complaints(abuse) to access directly to the user. Files for an exchange on tracker are given by users of a site, and the administration does not bear the responsibility for their maintenance. The request to not fill in the files protected by copyrights, and also files of the illegal maintenance!

    [Profile] [PM]
    Display posts from previous:    
    Reply to topic

    The time now is: Today 22:13

    All times are GMT + 3 Hours

    You cannot post new topics in this forum
    You cannot reply to topics in this forum
    You cannot edit your posts in this forum
    You cannot delete your posts in this forum
    You cannot vote in polls in this forum
    You cannot attach files in this forum
    You cannot download files in this forum