BitTorrentTracker PerecTracker.org
BitTorrentTracker PerecTracker.org
    
Регистрация  ·  Вход
 
 · 
Забыли пароль?

  • Джезабель / Jessabelle (Кевин Гротерт / Kevin Greutert) [2014, США, Ужасы Триллер, HDRip] Dub

    Ответить на тему
     
    Автор Сообщение

    Light

    Создавать темы 05-Апр-2015 20:52

           

    [Цитировать]

    Джезабель / Jessabelle
    Страна: США
    Жанр: Ужасы Триллер
    Год выпуска: 2014
    Продолжительность: 01:30:07
    Перевод: Профессиональный (дублированный)
    Cубтитры: нет
    Режиссер: Кевин Гротерт /Kevin Greutert
    В ролях: Сара Снук ,Джоэль Картер ,Марк Веббер ,Дэвид Эндрюс ,Ана де ла Регера ,Эмбер Стивенс ,Крис Эллис ,Брайан Хэллисей
    Описание: После трагической аварии, унесшей жизни мужа Джесси и их еще нерожденного ребенка, девушка оказывается прикована к инвалидному креслу и вынуждена переехать к своему отцу, проживающему в отдаленном особняке. Вскоре она обнаруживает загадочные видеозаписи, снятые ее давно умершей матерью. Джесси с ужасом понимает, что таинственные предсказания начинают сбываться…
    Доп. информация: сборы в России
    $1 000 690
    зрители
    Россия 233.4 тыс.
    премьера (мир)
    6 ноября 2014, ...
    премьера (РФ)
    27 ноября 2014
    рейтинг MPAA рейтинг PG-13
    время 90 мин. / 01:30
    Сэмпл: http://sendfile.su/1104361
    Качество видео: HDRip
    Формат видео: AVI
    Видео: Video: 720x400 (1.80:1), 23.976 fps, XviD build 50 ~1777 kbps avg, 0.26 bit/pixel
    Аудио:Audio: 48 kHz, AC3 Dolby Digital, 2/0 (L,R) ch, ~384 kbps

    MediaInfo

    Формат : AVI
    Формат/Информация : Audio Video Interleave
    Размер файла : 1,37 Гбайт
    Продолжительность : 1 ч. 30 м.
    Общий поток : 2171 Кбит/сек
    Программа кодирования : VirtualDubMod 1.5.10.2 (build 2540/release)
    Библиотека кодирования : VirtualDubMod build 2540/release
    Видео
    Идентификатор : 0
    Формат : MPEG-4 Visual
    Профиль формата : Advanced Simple@L5
    Параметр BVOP формата : 2
    Параметр QPel формата : Нет
    Параметр GMC формата : Без точки перехода
    Параметр матрицы формата : Default (MPEG)
    Идентификатор кодека : XVID
    Идентификатор кодека/Подсказка : XviD
    Продолжительность : 1 ч. 30 м.
    Битрейт : 1778 Кбит/сек
    Ширина : 720 пикселей
    Высота : 400 пикселей
    Соотношение сторон : 16:9
    Частота кадров : 23,976 кадра/сек
    Цветовое пространство : YUV
    Субдискретизация насыщенности : 4:2:0
    Битовая глубина : 8 бит
    Тип развёртки : Прогрессивная
    Метод сжатия : С потерями
    Бит/(Пиксели*Кадры) : 0.257
    Размер потока : 1,12 Гбайт (82%)
    Библиотека кодирования : XviD 1.2.1 (UTC 2008-12-04)
    Аудио
    Идентификатор : 1
    Формат : AC-3
    Формат/Информация : Audio Coding 3
    Расширение режима : CM (complete main)
    Параметр Endianness формата : Big
    Идентификатор кодека : 2000
    Продолжительность : 1 ч. 30 м.
    Вид битрейта : Постоянный
    Битрейт : 384 Кбит/сек
    Каналы : 2 канала
    Расположение каналов : Front: L R
    Частота : 48,0 КГц
    Битовая глубина : 16 бит
    Метод сжатия : С потерями
    Размер потока : 248 Мбайт (18%)
    Выравнивание : Разделение по промежуткам
    Продолжительность промежутка : 42 мс. (1,00 видеокадр)
    Время предзагрузки промежутка : 500 мс.

    Скриншот c названием фильма

    Скриншоты

    Скачать .torrent

    Скачать торрент-файл бесплатно и на максимальной скорости!

    Как скачивать? · Что такое торрент? · Рейтинг и ограничения

    !ВНИМАНИЕ!
    Сайт не распространяет и не хранит электронные версии произведений, а занимается лишь лишь предоставлением доступа к создаваемому пользователями каталогу ссылок на торрент-файлы, которые содержат только списки хеш-сумм, убедительная просьба с жалобами обращаться напрямую к пользователю. Файлы для обмена на трекере предоставлены пользователями сайта, и администрация не несёт ответственности за их содержание. Просьба не заливать файлы, защищенные авторскими правами, а также файлы нелегального содержания!


    _________________
    [Профиль] [ЛС]
    Показать сообщения:    
    Ответить на тему

    Текущее время: Сегодня, в 08:03

    Часовой пояс: GMT + 2



    Вы не можете начинать темы
    Вы не можете отвечать на сообщения
    Вы не можете редактировать свои сообщения
    Вы не можете удалять свои сообщения
    Вы не можете голосовать в опросах
    Вы не можете прикреплять файлы к сообщениям
    Вы не можете скачивать файлы