BitTorrentTracker PerecTracker.org
BitTorrentTracker PerecTracker.org
    
Регистрация  ·  Вход
 
 · 
Забыли пароль?

  • Челюскинцы (2 серии) (Михаил Ершов) [1984, героико-приключенческий, DVB]

    Ответить на тему
     
    Автор Сообщение

    Light

    Создавать темы 03-Апр-2015 13:42

           

    [Цитировать]

    Челюскинцы (2 серии)
    Жанр: героико-приключенческий
    Год выпуска: 1984
    Продолжительность: 01:04:10 + 00:59:35
    Режиссёр: Михаил Ершов
    В ролях: Александр Лазарев (старший), Пётр Вельяминов, Игорь Комаров, Евгений Гвоздёв, Олег Белонучкин, Валерий Кравченко, Евгений Леонов-Гладышев, Семен Морозов, Юрий Лазарев, Георгий Тейх, Александр Алексеев (V), Геннадий Черняев, Валерий Доронин, Валерий Комиссаров, Владимир Осипчук, Леонид Жеребцов, Петр Дроцкий, Виктор Павлов, Анастасия Глез-Петропавловская, Елена Антонова (II), Сергей Данилин, Анатолий Печников, Валерий Козинец, Г. Багдасаров, Олег Корчиков, Владимир Приходько, Юрий Соловьёв, Елена Павловская, Рудольф Челищев, Л. Зуева, Николай Федорцов, Герман Орлов, Герман Колушкин, Василий Корзун, Николай Карпиленко, Станислав Фесюнов, Александр Липов, Татьяна Иванова, Людмила Молокова, А. Фокин, А. Шервуд, Виталий Щенников, Алексей Кожевников, А. Пашкевич, Виталий Матвеев, Константин Гершов
    Описание: В феврале 1934 года в Чукотском море раздавлен льдами и затонул пароход "Челюскин". Экипаж судна и участники научной экспедиции высадились на дрейфующую льдину, на которой они продержались два месяца. Как жили люди на льдине?
    Доп. информация: Запись потока *.ts со спутника Ямал 402, 55° в.д., ремукс в *.mpg программой VideoReDo.
    Качество видео: DVB
    Формат видео: MPEG-PS
    Видео: MPEG2 Video, 720(768)x576 (4:3), 25,000 кадров/сек, 4425 Кбит/сек
    Аудио: MPEG Audio, 48,0 КГц, 192 Кбит/сек, 2 канала

    MediaInfo

    General
    Complete name : D:\MPG\ЧЕЛЮСКИНЦЫ 1 (Zvezda 55).mpg
    Format : MPEG-PS
    File size : 2.11 GiB
    Duration : 1h 4mn
    Overall bit rate mode : Variable
    Overall bit rate : 4 710 Kbps
    Video
    ID : 224 (0xE0)
    Format : MPEG Video
    Format version : Version 2
    Format profile : Main@Main
    Format settings, BVOP : Yes
    Format settings, Matrix : Custom
    Duration : 1h 4mn
    Bit rate mode : Variable
    Bit rate : 4 425 Kbps
    Maximum bit rate : 15.0 Mbps
    Width : 720 pixels
    Height : 576 pixels
    Display aspect ratio : 4:3
    Frame rate : 25.000 fps
    Standard : PAL
    Color space : YUV
    Chroma subsampling : 4:2:0
    Bit depth : 8 bits
    Scan type : Interlaced
    Scan order : Top Field First
    Compression mode : Lossy
    Bits/(Pixel*Frame) : 0.427
    Stream size : 1.98 GiB (94%)
    Audio
    ID : 192 (0xC0)
    Format : MPEG Audio
    Format version : Version 1
    Format profile : Layer 2
    Duration : 1h 4mn
    Bit rate mode : Constant
    Bit rate : 192 Kbps
    Channel(s) : 2 channels
    Sampling rate : 48.0 KHz
    Compression mode : Lossy
    Delay relative to video : 10ms
    Stream size : 88.2 MiB (4%)
    General
    Complete name : D:\MPG\ЧЕЛЮСКИНЦЫ 2 (Zvezda 55).mpg
    Format : MPEG-PS
    File size : 1.95 GiB
    Duration : 59mn 16s
    Overall bit rate mode : Variable
    Overall bit rate : 4 711 Kbps
    Video
    ID : 224 (0xE0)
    Format : MPEG Video
    Format version : Version 2
    Format profile : Main@Main
    Format settings, BVOP : Yes
    Format settings, Matrix : Custom
    Duration : 59mn 16s
    Bit rate mode : Variable
    Bit rate : 4 425 Kbps
    Maximum bit rate : 15.0 Mbps
    Width : 720 pixels
    Height : 576 pixels
    Display aspect ratio : 4:3
    Frame rate : 25.000 fps
    Standard : PAL
    Color space : YUV
    Chroma subsampling : 4:2:0
    Bit depth : 8 bits
    Scan type : Interlaced
    Scan order : Top Field First
    Compression mode : Lossy
    Bits/(Pixel*Frame) : 0.427
    Stream size : 1.83 GiB (94%)
    Audio
    ID : 192 (0xC0)
    Format : MPEG Audio
    Format version : Version 1
    Format profile : Layer 2
    Duration : 59mn 16s
    Bit rate mode : Constant
    Bit rate : 192 Kbps
    Channel(s) : 2 channels
    Sampling rate : 48.0 KHz
    Compression mode : Lossy
    Delay relative to video : 2ms
    Stream size : 81.4 MiB (4%)

    Скриншоты

    Скачать .torrent

    Скачать торрент-файл бесплатно и на максимальной скорости!

    Как скачивать? · Что такое торрент? · Рейтинг и ограничения

    !ВНИМАНИЕ!
    Сайт не распространяет и не хранит электронные версии произведений, а занимается лишь лишь предоставлением доступа к создаваемому пользователями каталогу ссылок на торрент-файлы, которые содержат только списки хеш-сумм, убедительная просьба с жалобами обращаться напрямую к пользователю. Файлы для обмена на трекере предоставлены пользователями сайта, и администрация не несёт ответственности за их содержание. Просьба не заливать файлы, защищенные авторскими правами, а также файлы нелегального содержания!


    _________________
    [Профиль] [ЛС]
    Показать сообщения:    
    Ответить на тему

    Текущее время: Сегодня, в 23:23

    Часовой пояс: GMT + 2



    Вы не можете начинать темы
    Вы не можете отвечать на сообщения
    Вы не можете редактировать свои сообщения
    Вы не можете удалять свои сообщения
    Вы не можете голосовать в опросах
    Вы не можете прикреплять файлы к сообщениям
    Вы не можете скачивать файлы