BitTorrentTracker PerecTracker.org
BitTorrentTracker PerecTracker.org
    
Регистрация  ·  Вход
 
 · 
Забыли пароль?

  • Мышеловка (Самсон Самсонов) [1990 г., детектив, экранизация, DVDRip]

    Ответить на тему
     
    Автор Сообщение

    Light

    Создавать темы 03-Апр-2015 09:30

           

    [Цитировать]

    МышеловкаГод выпуска: 1990.
    Жанр: детектив, экранизация.
    Продолжительность: 01:25:11.
    Режиссер: Самсон Самсонов.
    В ролях:
    Елена Попова, Евгений Парамонов, Владимир Сошальский, Елена Степаненко, Елена Степанова, Никита Высоцкий, Борис Химичев, Антон Курепов.
    Описание:
    По мотивам одноименной пьесы Агаты Кристи.
    Рядом с телом убитой женщины в Педдингтоне найдена записная книжка с адресом пансиона супругов Рэлстон. Под адресом была подпись: "Три слепые мышки", а на трупе записка - "Первая"...
    Криминальная история вписана в обыденную жизнь преуспевающих, внешне вполне благополучных людей, случайно или нет, собравшихся снежной ночью в усадьбе. Неожиданно открывается правда, до поры скрытая под маской респектабельности. Прошлое возвращается, порождая таинственные убийства…

    Доп. информация:
    Страна: СССР .
    Киностудия: Мосфильм.
    Премьера: ноябрь 1990 года.
    Автор сценария: Владимир Басов.
    Операторы: Михаил Демуров, Виктор Эпштейн.
    Композитор: Вениамин Баснер.
    Художник: Пётр Киселёв.

    Еще постеры

    Релиз
    Рип с этой раздачи.
    Большое спасибо bazil-mclaud за предоставленый DVD!!!

    Качество: DVDRip
    Формат: AVI
    Видео: 688x528 (1.30:1), 25 fps, XviD build 73 ~2279 kbps avg, 0.25 bit/pixel
    Аудио: 48 kHz, AC3 Dolby Digital, 2/0 (L,R) ch, ~192 kbps

    Отчет MI

    General
    Complete name : Myshelovka.1990.XviD.DVDRip_1.47.avi
    Format : AVI
    Format/Info : Audio Video Interleave
    File size : 1.48 GiB
    Duration : 1h 25mn
    Overall bit rate : 2 482 Kbps
    Writing application : VirtualDubMod 1.5.10.3 | www.virtualdub-fr.org || (build 2550/release)
    Writing library : VirtualDubMod build 2550/release
    Video
    ID : 0
    Format : MPEG-4 Visual
    Format profile : Advanced Simple@L5
    Format settings, BVOP : 1
    Format settings, QPel : No
    Format settings, GMC : No warppoints
    Format settings, Matrix : Custom
    Codec ID : XVID
    Codec ID/Hint : XviD
    Duration : 1h 25mn
    Bit rate : 2 280 Kbps
    Width : 688 pixels
    Height : 528 pixels
    Display aspect ratio : 4:3
    Frame rate : 25.000 fps
    Color space : YUV
    Chroma subsampling : 4:2:0
    Bit depth : 8 bits
    Scan type : Progressive
    Compression mode : Lossy
    Bits/(Pixel*Frame) : 0.251
    Stream size : 1.36 GiB (92%)
    Writing library : XviD 73
    Audio
    ID : 1
    Format : AC-3
    Format/Info : Audio Coding 3
    Mode extension : CM (complete main)
    Format settings, Endianness : Big
    Codec ID : 2000
    Duration : 1h 25mn
    Bit rate mode : Constant
    Bit rate : 192 Kbps
    Channel(s) : 2 channels
    Channel positions : Front: L R
    Sampling rate : 48.0 KHz
    Bit depth : 16 bits
    Compression mode : Lossy
    Stream size : 117 MiB (8%)
    Alignment : Split accross interleaves
    Interleave, duration : 40 ms (1.00 video frame)
    Interleave, preload duratio : 500 ms.
    Скриншоты

    Альтернативный хост

    Скачать .torrent

    Скачать торрент-файл бесплатно и на максимальной скорости!

    Как скачивать? · Что такое торрент? · Рейтинг и ограничения

    !ВНИМАНИЕ!
    Сайт не распространяет и не хранит электронные версии произведений, а занимается лишь лишь предоставлением доступа к создаваемому пользователями каталогу ссылок на торрент-файлы, которые содержат только списки хеш-сумм, убедительная просьба с жалобами обращаться напрямую к пользователю. Файлы для обмена на трекере предоставлены пользователями сайта, и администрация не несёт ответственности за их содержание. Просьба не заливать файлы, защищенные авторскими правами, а также файлы нелегального содержания!


    _________________
    [Профиль] [ЛС]
    Показать сообщения:    
    Ответить на тему

    Текущее время: Сегодня, в 06:19

    Часовой пояс: GMT + 2



    Вы не можете начинать темы
    Вы не можете отвечать на сообщения
    Вы не можете редактировать свои сообщения
    Вы не можете удалять свои сообщения
    Вы не можете голосовать в опросах
    Вы не можете прикреплять файлы к сообщениям
    Вы не можете скачивать файлы