BitTorrentTracker PerecTracker.org
BitTorrentTracker PerecTracker.org
    
Регистрация  ·  Вход
 
 · 
Забыли пароль?

  • Весна / Spring (Джастин Бенсон / Justin Benson, Аарон Мурхед / Aaron Moorhead) [2014, США, фантастика, мелодрама, ужасы, HDRip] + Sub Rus + Original Eng

    Ответить на тему
     
    Автор Сообщение

    Light

    Создавать темы 03-Апр-2015 09:30

           

    [Цитировать]

    Весна / Spring
    Страна: США
    Жанр: фантастика, мелодрама, ужасы
    Год выпуска: 2014
    Продолжительность: 01:49:37
    Перевод: Субтитры Перевел Dr.pro Есть немного ненормативной лексики.
    Cубтитры: русские
    Оригинальная аудиодорожка: английский
    Режиссер: Джастин Бенсон / Justin Benson, Аарон Мурхед / Aaron Moorhead
    В ролях: Лу Тэйлор Пуччи, Надиа Хилкер, Ванесса Беднар, Шэйн Брэйди, Франческо Карнелутти, Винни Каррен
    Описание: Эван+Луиза: Амальфитанское побережье, античные тайны и биогенетика в романтической фантастике Spring
    Пока милая болтовня знакомит Эвана и Луизу друг с другом, а зрителя — с ними обоими, в шприцах на полу и оккупировавших всё вокруг ящерах и гусеницах начинает просвечивать нехорошее. Кино, в первые полчаса казавшееся безобидной туристической прогулкой, заявляет о том, что содержит серьёзную тайну, рискуя в каждый следующий момент обернуться чем угодно.
    Сэмпл: http://multi-up.com/1041678
    Качество видео: HDRip
    Формат видео: AVI
    Видео: Xvid 720x304 23.976fps 1 493 Kbps [V: mpeg4 advanced simple profile, yuv420p, 720x304]
    Аудио: Dolby AC3 48000Hz 6ch 384kbps [A: ac3 (ac3, 48000 Hz, 5.1, 384 kb/s)]

    MediaInfo

    General
    Complete name : E:\Раздачи\Spring (2014)\Spring.avi
    Format : AVI
    Format/Info : Audio Video Interleave
    Format profile : OpenDML
    Format settings : rec
    File size : 1.44 GiB
    Duration : 1h 49mn
    Overall bit rate : 1 882 Kbps
    Writing application : AVI-Mux GUI 1.17.8.3, Feb 16 201019:42:50
    Video
    ID : 0
    Format : MPEG-4 Visual
    Format profile : Advanced Simple@L5
    Format settings, BVOP : Yes
    Format settings, QPel : No
    Format settings, GMC : No warppoints
    Format settings, Matrix : Default (H.263)
    Codec ID : XVID
    Codec ID/Hint : XviD
    Duration : 1h 49mn
    Bit rate : 1 493 Kbps
    Width : 720 pixels
    Height : 304 pixels
    Display aspect ratio : 2.35:1
    Frame rate : 23.976 fps
    Color space : YUV
    Chroma subsampling : 4:2:0
    Bit depth : 8 bits
    Scan type : Progressive
    Compression mode : Lossy
    Bits/(Pixel*Frame) : 0.284
    Stream size : 1.14 GiB (79%)
    Writing library : XviD 64
    Audio
    ID : 1
    Format : AC-3
    Format/Info : Audio Coding 3
    Mode extension : CM (complete main)
    Format settings, Endianness : Big
    Codec ID : 2000
    Duration : 1h 49mn
    Bit rate mode : Constant
    Bit rate : 384 Kbps
    Channel(s) : 6 channels
    Channel positions : Front: L C R, Side: L R, LFE
    Sampling rate : 48.0 KHz
    Bit depth : 16 bits
    Compression mode : Lossy
    Stream size : 301 MiB (20%)
    Alignment : Aligned on interleaves
    Interleave, duration : 64 ms (1.53 video frames)
    Interleave, preload duration : 192 ms
    Title : ac3

    Фрагмент субтитров

    1
    00:01:08,068 --> 00:01:09,234
    Эван.
    2
    00:01:13,574 --> 00:01:16,375
    Ты не проголодалась?
    3
    00:01:16,377 --> 00:01:19,144
    Или может пить хочешь?
    4
    00:01:19,146 --> 00:01:21,346
    Я люблю тебя.
    5
    00:01:21,348 --> 00:01:28,587
    Я тоже тебя люблю, мам.
    6
    00:01:28,589 --> 00:01:31,290
    Как работа?
    7
    00:01:31,292 --> 00:01:32,524
    Все было хорошо.
    8
    00:01:35,529 --> 00:01:38,497
    Ты счастлив?
    9
    00:01:38,499 --> 00:01:42,568
    Да
    10
    00:01:42,570 --> 00:01:45,504
    Хочешь шутку?

    Скриншот с названием фильма

    Скриншоты

    Скачать .torrent

    Скачать торрент-файл бесплатно и на максимальной скорости!

    Как скачивать? · Что такое торрент? · Рейтинг и ограничения

    !ВНИМАНИЕ!
    Сайт не распространяет и не хранит электронные версии произведений, а занимается лишь лишь предоставлением доступа к создаваемому пользователями каталогу ссылок на торрент-файлы, которые содержат только списки хеш-сумм, убедительная просьба с жалобами обращаться напрямую к пользователю. Файлы для обмена на трекере предоставлены пользователями сайта, и администрация не несёт ответственности за их содержание. Просьба не заливать файлы, защищенные авторскими правами, а также файлы нелегального содержания!


    _________________
    [Профиль] [ЛС]
    Показать сообщения:    
    Ответить на тему

    Текущее время: Сегодня, в 20:42

    Часовой пояс: GMT + 2



    Вы не можете начинать темы
    Вы не можете отвечать на сообщения
    Вы не можете редактировать свои сообщения
    Вы не можете удалять свои сообщения
    Вы не можете голосовать в опросах
    Вы не можете прикреплять файлы к сообщениям
    Вы не можете скачивать файлы