BitTorrentTracker PerecTracker.org
BitTorrentTracker PerecTracker.org
    
Регистрация  ·  Вход
 
 · 
Забыли пароль?

  • Игрок / The Gambler (Руперт Уайатт / Rupert Wyatt) [2014 г., США, триллер, драма, криминал, BDRip] Dub + Original Eng + Sub (Rus, Ukr, Eng)

    Ответить на тему
     
    Автор Сообщение

    Light

    Создавать темы 03-Апр-2015 09:30

           

    [Цитировать]

    -Игрок / The Gambler«Ставок больше нет»Страна: США
    Студия: Paramount Pictures, Winkler Films
    Жанр: Триллер, драма, криминал
    Год выпуска: 2014
    Продолжительность: 01:53:43-Перевод : Профессиональный (полное дублирование) BD EUR
    Оригинальная аудиодорожка: английская
    Cубтитры: русские, украинские, английские
    Режиссер: Руперт Уайатт / Rupert Wyatt
    В ролях: Марк Уолберг, Джон Гудман, Бри Ларсон, Майкл Кеннет Уильямс, Джессика Лэнг, Гриффин Кливлэнд, Омар Лейва, Энтони Келли, Стив Парк, Эмори Коэн
    Описание: Джим Беннетт – рисковый парень. Днем он – гениальный писатель и отличный преподаватель, ночью – заядлый игрок. Он глубоко увяз в мире, где закон – пустой звук, и однажды ставит на кон все, включая собственную жизнь. Те, кому он должен, опасны, а помочь ему может только тот, кто еще опаснее.
    Достоин ли второго шанса человек, проигравший самого себя? А, если да, то – во сколько это ему обойдется?-
    Сэмпл: скачать-Релиз от -
    Автор рипа: Elheym
    Качество: BDRip (источник: / Blu-ray EUR [THE_GAMBLER_HDCLUB] / 1080p)
    Контейнер: AVI
    Видео: 720x304 (2.37:1), 23.976 fps, XviD build 65 ~1913 kbps avg, 0.36 bit/pixel
    Аудио #1: Русский: AC3, 5.1, 48 kHz, ~448 Кбит/с | Профессиональный (полное дублирование), BD EUR |
    Аудио #2: Английский: AC3, 5.1, 48 kHz, ~448 Кбит/с | Оригинал |
    Субтитры: русские (полные), украинские (полные), английские (полные)
    Размер: 2235.55 Mb (1/2 DVD)

    MediaInfo

    Полное имя : Igrok.2014.DUAL.BDRip.XviD.AC3.-HQCLUB.avi
    Формат : AVI
    Формат/Информация : Audio Video Interleave
    Профиль формата : OpenDML
    Размер файла : 2,18 Гбайт
    Продолжительность : 1 ч. 50 м.
    Общий поток : 2816 Кбит/сек
    Название фильма : Игрок / The Gambler (2014) BDRip
    Режиссёр : Elheym
    Программа кодирования : VirtualDubMod 1.5.10.2 (build 2540/release)
    Правообладатель : HQCLUB
    Примечание : 02.04.2015
    Видео
    Идентификатор : 0
    Формат : MPEG-4 Visual
    Профиль формата : Advanced Simple@L5
    Параметр BVOP формата : 1
    Параметр QPel формата : Нет
    Параметр GMC формата : Без точки перехода
    Параметр матрицы формата : Выборочная
    Идентификатор кодека : XVID
    Идентификатор кодека/Подсказка : XviD
    Продолжительность : 1 ч. 50 м.
    Битрейт : 1903 Кбит/сек
    Ширина : 720 пикселей
    Высота : 304 пикселя
    Соотношение сторон : 2,35:1
    Частота кадров : 23,976 кадра/сек
    Цветовое пространство : YUV
    Субдискретизация насыщенности : 4:2:0
    Битовая глубина : 8 бит
    Тип развёртки : Прогрессивная
    Метод сжатия : С потерями
    Бит/(Пиксели*Кадры) : 0.363
    Размер потока : 1,47 Гбайт (68%)
    Библиотека кодирования : XviD 65
    Аудио #1
    Идентификатор : 1
    Формат : AC-3
    Формат/Информация : Audio Coding 3
    Расширение режима : CM (complete main)
    Параметр Endianness формата : Big
    Идентификатор кодека : 2000
    Продолжительность : 1 ч. 50 м.
    Вид битрейта : Постоянный
    Битрейт : 448 Кбит/сек
    Каналы : 6 каналов
    Расположение каналов : Front: L C R, Side: L R, LFE
    Частота : 48,0 КГц
    Битовая глубина : 16 бит
    Метод сжатия : С потерями
    Размер потока : 356 Мбайт (16%)
    Выравнивание : Разделение по промежуткам
    Продолжительность промежутка : 42 мс. (1,00 видеокадр)
    Время предзагрузки промежутка : 500 мс.
    Аудио #2
    Идентификатор : 2
    Формат : AC-3
    Формат/Информация : Audio Coding 3
    Расширение режима : CM (complete main)
    Параметр Endianness формата : Big
    Идентификатор кодека : 2000
    Продолжительность : 1 ч. 50 м.
    Вид битрейта : Постоянный
    Битрейт : 448 Кбит/сек
    Каналы : 6 каналов
    Расположение каналов : Front: L C R, Side: L R, LFE
    Частота : 48,0 КГц
    Битовая глубина : 16 бит
    Метод сжатия : С потерями
    Размер потока : 356 Мбайт (16%)
    Выравнивание : Разделение по промежуткам
    Продолжительность промежутка : 42 мс. (1,00 видеокадр)
    Время предзагрузки промежутка : 500 мс.

    Скриншоты

    Скачать .torrent

    Скачать торрент-файл бесплатно и на максимальной скорости!

    Как скачивать? · Что такое торрент? · Рейтинг и ограничения

    !ВНИМАНИЕ!
    Сайт не распространяет и не хранит электронные версии произведений, а занимается лишь лишь предоставлением доступа к создаваемому пользователями каталогу ссылок на торрент-файлы, которые содержат только списки хеш-сумм, убедительная просьба с жалобами обращаться напрямую к пользователю. Файлы для обмена на трекере предоставлены пользователями сайта, и администрация не несёт ответственности за их содержание. Просьба не заливать файлы, защищенные авторскими правами, а также файлы нелегального содержания!


    _________________
    [Профиль] [ЛС]
    Показать сообщения:    
    Ответить на тему

    Текущее время: Сегодня, в 00:38

    Часовой пояс: GMT + 2



    Вы не можете начинать темы
    Вы не можете отвечать на сообщения
    Вы не можете редактировать свои сообщения
    Вы не можете удалять свои сообщения
    Вы не можете голосовать в опросах
    Вы не можете прикреплять файлы к сообщениям
    Вы не можете скачивать файлы