Register  ·  Log in
Forgot password?

  • Важная дата / Save the Date (Майкл Мохан / Michael Mohan) [2012, США, мелодрама, комедия, HDTVRip] MVO

    Reply to topic
    Author Message


    Post 03-Apr-2015 10:30



    Важная дата / Save the Date
    Страна: США
    Жанр: мелодрама, комедия
    Год выпуска: 2012
    Продолжительность: 01:31:42
    Перевод: Профессиональный (многоголосый закадровый)
    Cубтитры: нет
    Режиссер: Майкл Мохан / Michael Mohan
    В ролях: Лиззи Каплан, Элисон Бри, Мартин Старр, Джеффри Аренд, Марк Веббер, Мелони Диас, Тимоти Басфилд, Гиги Бермингэм, Грант Уитни Харви, Девин Бэрри
    Описание: Две сестры стремятся выйти замуж любой ценой, как можно быстрее и как можно удачнее.
    Доп. информация: За запись исходника спасибо Romanok8691
    Качество видео: HDTVRip
    Формат видео: AVI
    Видео: 720x384 (1.88:1), 25 fps, XviD build 50 ~2175 kbps avg, 0.31 bit/pixel
    Аудио: 48 kHz, AC3 Dolby Digital, 2/0 (L,R) ch, ~192 kbps


    Важная дата - Save the Date [by Edich2].avi
    Format : AVI
    Format/Info : Audio Video Interleave
    File size : 1.50 GiB
    Duration : 1h 30mn
    Overall bit rate : 2 378 Kbps
    Movie name : Важная дата - Save the Date [by Edich2]
    Director : by Edich2
    Writing application : VirtualDubMod (build 2540/release)
    Writing library : VirtualDubMod build 2540/release
    Comment :
    ID : 0
    Format : MPEG-4 Visual
    Format profile : Advanced Simple@L5
    Format settings, BVOP : 1
    Format settings, QPel : No
    Format settings, GMC : No warppoints
    Format settings, Matrix : Default (MPEG)
    Codec ID : XVID
    Codec ID/Hint : XviD
    Duration : 1h 30mn
    Bit rate : 2 176 Kbps
    Width : 720 pixels
    Height : 384 pixels
    Display aspect ratio : 1.85:1
    Frame rate : 25.000 fps
    Color space : YUV
    Chroma subsampling : 4:2:0
    Bit depth : 8 bits
    Scan type : Progressive
    Compression mode : Lossy
    Bits/(Pixel*Frame) : 0.315
    Stream size : 1.37 GiB (92%)
    Writing library : XviD 1.2.1 (UTC 2008-12-04)
    ID : 1
    Format : AC-3
    Format/Info : Audio Coding 3
    Mode extension : CM (complete main)
    Format settings, Endianness : Big
    Codec ID : 2000
    Duration : 1h 30mn
    Bit rate mode : Constant
    Bit rate : 192 Kbps
    Channel(s) : 2 channels
    Channel positions : Front: L R
    Sampling rate : 48.0 KHz
    Bit depth : 16 bits
    Compression mode : Lossy
    Stream size : 124 MiB (8%)
    Alignment : Split accross interleaves
    Interleave, duration : 40 ms (1.00 video frame)
    Interleave, preload duration : 500 ms


    Download .torrent

    Download free and at maximum speed!

    How to Download? · What is a torrent? · Ratings and Limitations

    The site does not extend and does not store electronic(digital) versions of products, and only gives access to a reference catalogue created by users on torrent-files which contain only lists of the hash-sums, the earnest entreaty, with complaints(abuse) to access directly to the user. Files for an exchange on tracker are given by users of a site, and the administration does not bear the responsibility for their maintenance. The request to not fill in the files protected by copyrights, and also files of the illegal maintenance!

    [Profile] [PM]
    Display posts from previous:    
    Reply to topic

    The time now is: Today 19:41

    All times are GMT + 3 Hours

    You cannot post new topics in this forum
    You cannot reply to topics in this forum
    You cannot edit your posts in this forum
    You cannot delete your posts in this forum
    You cannot vote in polls in this forum
    You cannot attach files in this forum
    You cannot download files in this forum