BitTorrentTracker PerecTracker.org
BitTorrentTracker PerecTracker.org
    
Регистрация  ·  Вход
 
 · 
Забыли пароль?

  • [ATV3] Игрок / The Gambler (Руперт Уайатт / Rupert Wyatt ) [2014, США, Триллер, драма, криминал, BDRip, HD (1080p)] DUB + Original + sub (rus, eng)

    Ответить на тему
     
    Автор Сообщение

    rechyn

    Создавать темы 03-Апр-2015 05:18

           

    [Цитировать]

    Игрок / The Gambler
    «Ставок больше нет»
    6.198 / 10 6.10 / 10
    -Год выпуска: 2014
    Страна: США
    Жанр: Триллер, драма, криминал
    Продолжительность: 01:50:58
    Перевод: Профессиональный (дублированный) (Лицензия)
    Оригинальная аудиодорожка: Есть
    Cубтитры: Русские, Английские
    Режиссёр: Руперт Уайатт
    Сценарий: Уильям Монахэн, Джеймс Тобэк
    Продюсер: Роберт Чартофф, Стивен Левинсон, Марк Уолберг
    Оператор: Грег Фрэйзер
    Композитор: Джон Брайон, Тео Грин
    Художник: Кит П. Каннингэм, Доун Свидерский, Жаклин Уэст
    Монтаж: Пит Бьёдро
    В ролях: Марк Уолберг, Джон Гудман, Бри Ларсон, Майкл Кеннет Уильямс, Джессика Лэнг, Гриффин Кливлэнд, Омар Лейва, Энтони Келли, Стив Парк, Эмори Коэн
    Бюджет: $25 000 000
    Сборы в США: $33 680 992
    Сборы в мире: + $5 490 138 = $39 171 130
    Сборы в России: $1 172 766
    Мировая премьера: 10 ноября 2014
    Премьера (РФ): 22 января 2015, «Централ Партнершип»
    Релиз на DVD: 1 июня 2015, «Новый Диск»
    Релиз на Blu-Ray: 1 июня 2015, «Новый Диск»
    Описание: Джим Беннетт — рисковый парень. Днем он — гениальный писатель и отличный преподаватель, ночью — заядлый игрок. Он глубоко увяз в мире, где закон — пустой звук, и однажды ставит на кон все, включая собственную жизнь. Те, кому он должен, опасны, а помочь ему может только тот, кто еще опаснее.-Качество исходника: Кинозал, Игрок / The Gambler / 2014 / ДБ, СТ / Blu-Ray Remux (1080p)
    Качество: BDRip
    Тип: HD (1080p)
    Контейнер: M4V
    Видео: H.264, 1920x800, 2.40:1, 8 000 Kbps, 23.976 fps
    Аудио 1: Русский/Профессиональный (дублированный) (Лицензия), AAC / 2.0 / 158 Kbps / 48.0 KHz
    Аудио 2: Английский/Оригинальная дорожка , AAC / 2.0 / 157 Kbps / 48.0 KHz
    Аудио 3: Русский/Профессиональный (дублированный) (Лицензия), AC-3 / 5.1 / 640 Kbps / 48.0 KHz
    Аудио 4: Английский/Оригинальная дорожка , AC-3 / 5.1 / 640 Kbps / 48.0 KHz
    Субтитры 1: Русские полные
    Субтитры 2: Английские полные
    -

    iTunes Meta Tags

    Sort Name: Gambler
    XID: Apple:vendor_id:2014-614227
    contentID: 945107340
    Copyright: © 2014 by Paramount Pictures. All Rights Reserved.
    Screenwriters: Уильям Монахэн, Джеймс Тобэк
    Producers: Роберт Чартофф, Стивен Левинсон, Марк Уолберг
    Director: Руперт Уайатт
    Cast: Марк Уолберг, Джон Гудман, Бри Ларсон, Майкл Кеннет Уильямс, Джессика Лэнг, Гриффин Кливлэнд, Омар Лейва, Энтони Келли, Стив Парк, Эмори Коэн, Всеволод Кузнецов, Александр Новиков, Евгения Ваган, Станислав Тикунов
    Studio: Paramount Pictures
    Rating: 11
    Long Description: Джим Беннетт - рисковый парень. Днем он - гениальный писатель и отличный преподаватель, ночью - заядлый игрок. Он глубоко увяз в мире, где закон - пустой звук, и однажды ставит на кон все, включая собственную жизнь. Те, кому он должен, опасны, а помочь ему может только тот, кто еще опаснее.
    Достоин ли второго шанса человек, проигравший самого себя? А, если да, то - во сколько это ему обойдется?
    Description: Джим Беннетт - рисковый парень. Днем он - гениальный писатель и отличный преподаватель, ночью - заядлый игрок. Он глубоко увяз в мире, где закон - пустой звук, и однажды ставит на кон все, включая собственную жизнь.
    Release Date: 2014-11-10T08:00:00Z
    Genre: Drama
    Artist: Rupert Wyatt
    Name: The Gambler

    MediaInfo

    General
    Complete name                            : /Users/imac/HandBrake/The Gambler (1080p HD).m4v
    Format                                   : MPEG-4
    Codec ID                                 : M4V
    File size                                : 7.44 GiB
    Duration                                 : 1h 50mn
    Overall bit rate mode                    : Variable
    Overall bit rate                         : 9 599 Kbps
    Movie name                               : The Gambler
    Performer                                : Rupert Wyatt
    Genre                                    : Drama
    Recorded date                            : UTC 2014-11-10 08:00:00
    Encoded date                             : UTC 2015-04-02 10:53:35
    Tagged date                              : UTC 2015-04-02 10:56:43
    Copyright                                : © 2014 by Paramount Pictures. All Rights Reserved.
    Cover                                    : Yes
    sonm                                     : Gambler
    desc                                     : Джим Беннетт - рисковый парень. Днем он - гениальный писатель и отличный преподаватель, ночью - заядлый игрок. Он глубоко увяз в мире, где закон - пустой звук, и однажды ставит на кон все, включая собственную жизнь.
    ldes                                     : Джим Беннетт - рисковый парень. Днем он - гениальный писатель и отличный преподаватель, ночью - заядлый игрок. Он глубоко увяз в мире, где закон - пустой звук, и однажды ставит на кон все, включая собственную жизнь. Те, кому он должен, опасны, а помочь ему может только тот, кто еще опаснее. / Достоин ли второго шанса человек, проигравший самого себя? А, если да, то - во сколько это ему обойдется?
    hdvd                                     : 2
    stik                                     : 9
    rtng                                     : 0
    cnID                                     : 945107340
    xid                                      : Apple:vendor_id:2014-614227
    iTunEXTC                                 : mpaa|R|400|
    iTunMOVI                                 : <?xml version=\\\"1.0\\\" encoding=\\\"UTF-8\\\"?> / <!DOCTYPE plist PUBLIC \\\"-//Apple//DTD PLIST 1.0//EN\\\" \\\"http://anonym.to/?http://www.apple.com/DTDs/PropertyList-1.0.dtd\\\"> / <plist version=\\\"1.0\\\"> / <dict> /   <key>cast</key> /   <array> /     <dict> /       <key>name</key> /       <string>Марк Уолберг</string> /     </dict> /     <dict> /       <key>name</key> /       <string>Джон Гудман</string> /     </dict> /     <dict> /       <key>name</key> /       <string>Бри Ларсон</string> /     </dict> /     <dict> /       <key>name</key> /       <string>Майкл Кеннет Уильямс</string> /     </dict> /     <dict> /       <key>name</key> /       <string>Джессика Лэнг</string> /     </dict> /     <dict> /       <key>name</key> /       <string>Гриффин Кливлэнд</string> /     </dict> /     <dict> /       <key>name</key> /       <string>Омар Лейва</string> /     </dict> /     <dict> /       <key>name</key> /       <string>Энтони Келли</string> /     </dict> /     <dict> /       <key>name</key> /       <string>Стив Парк</string> /     </dict> /     <dict> /       <key>name</key> /       <string>Эмори Коэн</string> /     </dict> /     <dict> /       <key>name</key> /       <string>Всеволод Кузнецов</string> /     </dict> /     <dict> /       <key>name</key> /       <string>Александр Новиков</string> /     </dict> /     <dict> /       <key>name</key> /       <string>Евгения Ваган</string> /     </dict> /     <dict> /       <key>name</key> /       <string>Станислав Тикунов</string> /     </dict> /   </array> /   <key>directors</key> /   <array> /     <dict> /       <key>name</key> /       <string>Руперт Уайатт</string> /     </dict> /   </array> /   <key>producers</key> /   <array> /     <dict> /       <key>name</key> /       <string>Роберт Чартофф</string> /     </dict> /     <dict> /       <key>name</key> /       <string>Стивен Левинсон</string> /     </dict> /     <dict> /       <key>name</key> /       <string>Марк Уолберг</string> /     </dict> /   </array> /   <key>screenwriters</key> /   <array> /     <dict> /       <key>name</key> /       <string>Уильям Монахэн</string> /     </dict> /     <dict> /       <key>name</key> /       <string>Джеймс Тобэк</string> /     </dict> /   </array> /   <key>studio</key> /   <string>Paramount Pictures</string> / </dict> / </plist>
    Video #1
    ID                                       : 1
    Format                                   : AVC
    Format/Info                              : Advanced Video Codec
    Format profile                           : High@L4.0
    Format settings, CABAC                   : Yes
    Format settings, ReFrames                : 4 frames
    Codec ID                                 : avc1
    Codec ID/Info                            : Advanced Video Coding
    Duration                                 : 1h 50mn
    Bit rate mode                            : Variable
    Bit rate                                 : 8 000 Kbps
    Width                                    : 1 920 pixels
    Height                                   : 800 pixels
    Display aspect ratio                     : 2.40:1
    Frame rate mode                          : Variable
    Frame rate                               : 23.976 fps
    Minimum frame rate                       : 23.810 fps
    Maximum frame rate                       : 24.272 fps
    Color space                              : YUV
    Chroma subsampling                       : 4:2:0
    Bit depth                                : 8 bits
    Scan type                                : Progressive
    Bits/(Pixel*Frame)                       : 0.217
    Stream size                              : 6.20 GiB (83%)
    Writing library                          : x264 core 142 r2479 dd79a61
    Encoding settings                        : cabac=1 / ref=4 / deblock=1:0:0 / analyse=0x3:0x133 / me=umh / subme=10 / psy=1 / psy_rd=1.00:0.00 / mixed_ref=1 / me_range=32 / chroma_me=1 / trellis=2 / 8x8dct=1 / cqm=0 / deadzone=21,11 / fast_pskip=1 / chroma_qp_offset=-2 / threads=36 / lookahead_threads=4 / sliced_threads=0 / nr=0 / decimate=1 / interlaced=0 / bluray_compat=0 / constrained_intra=0 / bframes=4 / b_pyramid=2 / b_adapt=2 / b_bias=0 / direct=3 / weightb=1 / open_gop=0 / weightp=2 / keyint=240 / keyint_min=24 / scenecut=40 / intra_refresh=0 / rc_lookahead=40 / rc=2pass / mbtree=0 / bitrate=8000 / ratetol=1.0 / qcomp=0.60 / qpmin=0 / qpmax=69 / qpstep=4 / cplxblur=20.0 / qblur=0.5 / vbv_maxrate=25000 / vbv_bufsize=25000 / nal_hrd=none / filler=0 / ip_ratio=1.40 / pb_ratio=1.30 / aq=1:1.00
    Language                                 : English
    Encoded date                             : UTC 2015-04-02 10:53:35
    Tagged date                              : UTC 2015-04-02 10:53:55
    Color primaries                          : BT.709-5, BT.1361, IEC 61966-2-4, SMPTE RP177
    Transfer characteristics                 : BT.709-5, BT.1361
    Matrix coefficients                      : BT.709-5, BT.1361, IEC 61966-2-4 709, SMPTE RP177
    Video #2
    ID                                       : 9
    Format                                   : JPEG
    Codec ID                                 : jpeg
    Duration                                 : 1h 50mn
    Bit rate mode                            : Variable
    Bit rate                                 : 508 bps
    Width                                    : 640 pixels
    Height                                   : 266 pixels
    Display aspect ratio                     : 2.40:1
    Frame rate mode                          : Variable
    Frame rate                               : 0.002 fps
    Minimum frame rate                       : 0.002 fps
    Maximum frame rate                       : 0.007 fps
    Color space                              : YUV
    Chroma subsampling                       : 4:2:0
    Bit depth                                : 8 bits
    Compression mode                         : Lossy
    Bits/(Pixel*Frame)                       : 1.492
    Stream size                              : 496 KiB (0%)
    Language                                 : English
    Encoded date                             : UTC 2015-04-02 10:54:02
    Tagged date                              : UTC 2015-04-02 10:54:02
    Audio #1
    ID                                       : 2
    Format                                   : AAC
    Format/Info                              : Advanced Audio Codec
    Format profile                           : LC
    Codec ID                                 : 40
    Duration                                 : 1h 50mn
    Bit rate mode                            : Variable
    Bit rate                                 : 158 Kbps
    Maximum bit rate                         : 277 Kbps
    Channel(s)                               : 2 channels
    Channel positions                        : Front: L R
    Sampling rate                            : 48.0 KHz
    Compression mode                         : Lossy
    Stream size                              : 125 MiB (2%)
    Language                                 : Russian
    Encoded date                             : UTC 2015-04-02 10:53:35
    Tagged date                              : UTC 2015-04-02 10:53:44
    Audio #2
    ID                                       : 3
    Format                                   : AAC
    Format/Info                              : Advanced Audio Codec
    Format profile                           : LC
    Codec ID                                 : 40
    Duration                                 : 1h 50mn
    Bit rate mode                            : Variable
    Bit rate                                 : 157 Kbps
    Maximum bit rate                         : 270 Kbps
    Channel(s)                               : 2 channels
    Channel positions                        : Front: L R
    Sampling rate                            : 48.0 KHz
    Compression mode                         : Lossy
    Stream size                              : 125 MiB (2%)
    Language                                 : English
    Encoded date                             : UTC 2015-04-02 10:53:35
    Tagged date                              : UTC 2015-04-02 10:53:44
    Audio #3
    ID                                       : 4
    Format                                   : AC-3
    Format/Info                              : Audio Coding 3
    Mode extension                           : CM (complete main)
    Format settings, Endianness              : Big
    Codec ID                                 : ac-3
    Duration                                 : 1h 50mn
    Bit rate mode                            : Constant
    Bit rate                                 : 640 Kbps
    Channel(s)                               : 6 channels
    Channel positions                        : Front: L C R, Side: L R, LFE
    Sampling rate                            : 48.0 KHz
    Bit depth                                : 16 bits
    Compression mode                         : Lossy
    Stream size                              : 508 MiB (7%)
    Language                                 : Russian
    Encoded date                             : UTC 2015-04-02 10:53:35
    Tagged date                              : UTC 2015-04-02 10:53:41
    Audio #4
    ID                                       : 5
    Format                                   : AC-3
    Format/Info                              : Audio Coding 3
    Mode extension                           : CM (complete main)
    Format settings, Endianness              : Big
    Codec ID                                 : ac-3
    Duration                                 : 1h 50mn
    Bit rate mode                            : Constant
    Bit rate                                 : 640 Kbps
    Channel(s)                               : 6 channels
    Channel positions                        : Front: L C R, Side: L R, LFE
    Sampling rate                            : 48.0 KHz
    Bit depth                                : 16 bits
    Compression mode                         : Lossy
    Stream size                              : 508 MiB (7%)
    Language                                 : English
    Encoded date                             : UTC 2015-04-02 10:53:35
    Tagged date                              : UTC 2015-04-02 10:53:41
    Text #1
    ID                                       : 6
    Format                                   : Timed text
    Muxing mode                              : sbtl
    Codec ID                                 : tx3g
    Duration                                 : 1h 50mn
    Bit rate mode                            : Variable
    Bit rate                                 : 95 bps
    Stream size                              : 77.6 KiB (0%)
    Language                                 : Russian
    Encoded date                             : UTC 2015-04-02 10:53:35
    Tagged date                              : UTC 2015-04-02 10:53:35
    Text #2
    ID                                       : 7
    Format                                   : Timed text
    Muxing mode                              : sbtl
    Codec ID                                 : tx3g
    Duration                                 : 1h 43mn
    Bit rate mode                            : Variable
    Bit rate                                 : 71 bps
    Stream size                              : 53.8 KiB (0%)
    Language                                 : English
    Encoded date                             : UTC 2015-04-02 10:53:35
    Tagged date                              : UTC 2015-04-02 10:53:35
    Text #3
    ID                                       : 8
    Format                                   : Apple text
    Codec ID                                 : text
    Duration                                 : 1h 50mn
    Bit rate mode                            : Variable
    Bit rate                                 : 0 bps
    Stream size                              : 375 Bytes (0%)
    Language                                 : English
    Encoded date                             : UTC 2015-04-02 10:53:55
    Tagged date                              : UTC 2015-04-02 10:53:55
    Menu
    00:00:00.000                             : Chapter 1
    00:08:21.459                             : Chapter 2
    00:16:46.547                             : Chapter 3
    00:25:22.104                             : Chapter 4
    00:29:16.338                             : Chapter 5
    00:34:09.589                             : Chapter 6
    00:45:08.539                             : Chapter 7
    00:51:00.599                             : Chapter 8
    00:59:08.503                             : Chapter 9
    01:06:22.812                             : Chapter 10
    01:12:39.313                             : Chapter 11
    01:21:58.747                             : Chapter 12
    01:24:17.177                             : Chapter 13
    01:31:11.841                             : Chapter 14
    01:35:35.730                             : Chapter 15
    01:46:04.608                             : Chapter 16

    x264 лог

    x264 [info]: frame I:1526  Avg QP:12.65  size:209260
    x264 [info]: frame P:40697 Avg QP:15.09  size: 77815
    x264 [info]: frame B:117425 Avg QP:16.74  size: 26977
    x264 [info]: consecutive B-frames:  3.2%  3.6% 10.6% 27.3% 55.3%
    x264 [info]: mb I  I16..4:  8.2% 84.3%  7.4%
    x264 [info]: mb P  I16..4:  2.7% 16.7%  1.0%  P16..4: 32.3% 22.3% 15.1%  0.4%  0.1%    skip: 9.5%
    x264 [info]: mb B  I16..4:  0.4%  1.1%  0.1%  B16..8: 39.7% 13.1%  4.2%  direct: 5.8%  skip:35.7%  L0:43.7% L1:46.9% BI: 9.5%
    x264 [info]: 8x8 transform intra:80.6% inter:54.0%
    x264 [info]: direct mvs  spatial:99.1% temporal:0.9%
    x264 [info]: coded y,uvDC,uvAC intra: 82.7% 88.0% 73.7% inter: 28.3% 25.8% 5.6%
    x264 [info]: i16 v,h,dc,p: 64%  9%  5% 23%
    x264 [info]: i8 v,h,dc,ddl,ddr,vr,hd,vl,hu: 10%  8% 15%  9% 12% 12% 11% 11% 11%
    x264 [info]: i4 v,h,dc,ddl,ddr,vr,hd,vl,hu: 10%  9%  5%  9% 15% 15% 14% 11% 12%
    x264 [info]: i8c dc,h,v,p: 52% 18% 16% 13%
    x264 [info]: Weighted P-Frames: Y:1.1% UV:0.5%
    x264 [info]: ref P L0: 50.5%  7.3% 28.8% 11.6%  1.8%  0.0%
    x264 [info]: ref B L0: 80.0% 15.9%  4.1%
    x264 [info]: ref B L1: 89.3% 10.7%
    x264 [info]: kb/s:7994.40

    Скриншоты

    -

    Релиз подготовлен для просмотра на Apple TV, iPad, iPhone, iPod Touch.
    Для просмотра данного релиза на компьютере с ОС Windows рекомендуется использовать VLC media player
    Скачать .torrent

    Скачать торрент-файл бесплатно и на максимальной скорости!

    Как скачивать? · Что такое торрент? · Рейтинг и ограничения

    !ВНИМАНИЕ!
    Сайт не распространяет и не хранит электронные версии произведений, а занимается лишь лишь предоставлением доступа к создаваемому пользователями каталогу ссылок на торрент-файлы, которые содержат только списки хеш-сумм, убедительная просьба с жалобами обращаться напрямую к пользователю. Файлы для обмена на трекере предоставлены пользователями сайта, и администрация не несёт ответственности за их содержание. Просьба не заливать файлы, защищенные авторскими правами, а также файлы нелегального содержания!


    _________________
    [Профиль] [ЛС]
    Показать сообщения:    
    Ответить на тему

    Текущее время: Сегодня, в 22:43

    Часовой пояс: GMT + 2



    Вы не можете начинать темы
    Вы не можете отвечать на сообщения
    Вы не можете редактировать свои сообщения
    Вы не можете удалять свои сообщения
    Вы не можете голосовать в опросах
    Вы не можете прикреплять файлы к сообщениям
    Вы не можете скачивать файлы