BitTorrentTracker PerecTracker.org
BitTorrentTracker PerecTracker.org
    
Регистрация  ·  Вход
 
 · 
Забыли пароль?

  • Торт / Cake (Даниел Барнз / Daniel Barnz) [2014, США, Драма, HDRip] VO (PashaUp)

    Ответить на тему
     
    Автор Сообщение

    Light

    Создавать темы 02-Апр-2015 20:54

           

    [Цитировать]

    Торт / Cake
    Страна: США
    Жанр: Драма
    Год выпуска: 2014
    Продолжительность: 01:39:56
    Перевод: Одноголосый (закадровый) [PashaUP]
    Оригинальная аудиодорожка: нет
    Cубтитры: нет
    Режиссер: Даниел Барнз / Daniel Barnz
    В ролях:Дженнифер Энистон, Адриана Барраса, Фелисити Хаффмен, Уильям Х. Мэйси, Анна Кендрик, Сэм Уортингтон, Бритт Робертсон, Люси Панч, Крис Мессина, Мэми Гаммер, Камилла Гуати, Мисти Апхэм, Эшли Кроу, Роуз Абду, Пепе Серна, Камилль Мана, Хулио Оскар Мечосо, Аллен Мальдонадо, Паула Кейл, Альма Мартинес
    Описание: Молодая женщина Клер посещает группу психологической поддержки для людей, страдающих от хронической боли. Когда одна из участниц группы совершает самоубийство, Клер становится одержима идеей узнать о погибшей как можно больше. Она отправляется к ее мужу-вдовцу, знакомится с ее сыном. Пытаясь постичь чужую трагедию, Клер делает попытки справиться и со своей личной трагедией, разрушившей ее когда-то благополучную семью...


    Качество: HDRip
    Контейнер: AVI
    Видео: 720x304 (2.37:1), 23.976 fps, XviD build 50 ~1721 kbps avg, 0.33 bit/pixel
    Аудио: 44.1 kHz, AC3 Dolby Digital, 2/0 (L,R) ch, ~192 kbps

    MI

    Общее
    Полное имя : C:\Users\Пользователь\Downloads\Cake_HDRip.avi
    Формат : AVI
    Формат/Информация : Audio Video Interleave
    Размер файла : 1,37 Гбайт
    Продолжительность : 1 ч. 41 м.
    Общий поток : 1923 Кбит/сек
    Программа кодирования : VirtualDubMod 1.5.10.2 (build 2540/release)
    Библиотека кодирования : VirtualDubMod build 2540/release
    Видео
    Идентификатор : 0
    Формат : MPEG-4 Visual
    Профиль формата : Advanced Simple@L5
    Параметр BVOP формата : 2
    Параметр QPel формата : Нет
    Параметр GMC формата : Без точки перехода
    Параметр матрицы формата : Default (MPEG)
    Идентификатор кодека : XVID
    Идентификатор кодека/Подсказка : XviD
    Продолжительность : 1 ч. 41 м.
    Битрейт : 1722 Кбит/сек
    Ширина : 720 пикселей
    Высота : 304 пикселя
    Соотношение сторон : 2,35:1
    Частота кадров : 23,976 кадра/сек
    Цветовое пространство : YUV
    Субдискретизация насыщенности : 4:2:0
    Битовая глубина : 8 бит
    Тип развёртки : Прогрессивная
    Метод сжатия : С потерями
    Бит/(Пиксели*Кадры) : 0.328
    Размер потока : 1,22 Гбайт (90%)
    Библиотека кодирования : XviD 1.2.1 (UTC 2008-12-04)
    Аудио
    Идентификатор : 1
    Формат : AC-3
    Формат/Информация : Audio Coding 3
    Расширение режима : CM (complete main)
    Параметр Endianness формата : Big
    Идентификатор кодека : 2000
    Продолжительность : 1 ч. 41 м.
    Вид битрейта : Постоянный
    Битрейт : 192 Кбит/сек
    Каналы : 2 канала
    Расположение каналов : Front: L R
    Частота : 44,1 КГц
    Битовая глубина : 16 бит
    Метод сжатия : С потерями
    Размер потока : 140 Мбайт (10%)
    Выравнивание : Разделение по промежуткам
    Продолжительность промежутка : 42 мс. (1,00 видеокадр)
    Время предзагрузки промежутка : 500 мс.

    Скриншоты

    Скачать .torrent

    Скачать торрент-файл бесплатно и на максимальной скорости!

    Как скачивать? · Что такое торрент? · Рейтинг и ограничения

    !ВНИМАНИЕ!
    Сайт не распространяет и не хранит электронные версии произведений, а занимается лишь лишь предоставлением доступа к создаваемому пользователями каталогу ссылок на торрент-файлы, которые содержат только списки хеш-сумм, убедительная просьба с жалобами обращаться напрямую к пользователю. Файлы для обмена на трекере предоставлены пользователями сайта, и администрация не несёт ответственности за их содержание. Просьба не заливать файлы, защищенные авторскими правами, а также файлы нелегального содержания!


    _________________
    [Профиль] [ЛС]
    Показать сообщения:    
    Ответить на тему

    Текущее время: Сегодня, в 12:34

    Часовой пояс: GMT + 2



    Вы не можете начинать темы
    Вы не можете отвечать на сообщения
    Вы не можете редактировать свои сообщения
    Вы не можете удалять свои сообщения
    Вы не можете голосовать в опросах
    Вы не можете прикреплять файлы к сообщениям
    Вы не можете скачивать файлы