BitTorrentTracker PerecTracker.org
BitTorrentTracker PerecTracker.org
    
Регистрация  ·  Вход
 
 · 
Забыли пароль?

  • Пойми меня, если сможешь / Incompresa (Азия Ардженто / Asia Argento) [2014, Италия, Франция, драма, SATRip] MVO

    Ответить на тему
     
    Автор Сообщение

    Light

    Создавать темы 02-Апр-2015 20:54

           

    [Цитировать]

    Пойми меня, если сможешь / Incompresa
    Страна: Италия, Франция
    Жанр: драма
    Год выпуска: 2014
    Продолжительность: 01:46:07
    Перевод: Профессиональный (многоголосый закадровый)
    Cубтитры: нет

    Режиссер: Азия Ардженто / Asia Argento
    В ролях: Анна Лу Кастольди, Шарлотта Генсбур, Габриель Гарко, Макс Газзе, Элис Пиа, Джастин Пирсон, Джастин Пирсон, Каролина Поччиони, Джулия Салерно, Джанмарко Тоньяцци
    Описание: Ариа — классная девчонка, которая умеет дружить и стильно одеваться, но ей жутко одиноко: звездные родители со скандалом разводятся, сводным сестрам тоже не до неё, а злые одноклассники завидуют и строят козни. В компании любимого черного кота Ариа отправляется в свободное плавание по итальянским улицам.
    Шарлотта Генсбур в роли богемной экспрессивной матери, опасный накал страстей, искрометный юмор и «полароидная» цветовая феерия 80-х. Яркая, а также очень близкая каждому картина режиссера Азии Ардженто — ведь кому не случалось почувствовать себя лишним в собственной семье.

    Качество видео: SATRip
    Формат видео: AVI
    Видео: 688x416 (1.65:1), 24 fps, XviD build 73 ~1762 kbps avg, 0.26 bit/pixel
    Аудио: 48 kHz, AC3 Dolby Digital, 2/0 (L,R) ch, ~192 kbps

    MediaInfo

    Общее
    Полное имя : H:\Incompresa.2014.webrip_[1.46]_[teko].avi
    Формат : AVI
    Формат/Информация : Audio Video Interleave
    Размер файла : 1,46 Гбайт
    Продолжительность : 1 ч. 46 м.
    Общий поток : 1964 Кбит/сек
    Программа кодирования : VirtualDubMod 1.5.10.3 | www.virtualdub-fr.org || (build 2550/release)
    Библиотека кодирования : VirtualDubMod build 2550/release
    Видео
    Идентификатор : 0
    Формат : MPEG-4 Visual
    Профиль формата : Advanced Simple@L5
    Параметр BVOP формата : 1
    Параметр QPel формата : Нет
    Параметр GMC формата : Без точки перехода
    Параметр матрицы формата : Выборочная
    Идентификатор кодека : XVID
    Идентификатор кодека/Подсказка : XviD
    Продолжительность : 1 ч. 46 м.
    Битрейт : 1763 Кбит/сек
    Ширина : 688 пикселей
    Высота : 416 пикселей
    Соотношение сторон : 1,654
    Частота кадров : 24,000 кадра/сек
    Цветовое пространство : YUV
    Субдискретизация насыщенности : 4:2:0
    Битовая глубина : 8 бит
    Тип развёртки : Прогрессивная
    Метод сжатия : С потерями
    Бит/(Пиксели*Кадры) : 0.257
    Размер потока : 1,31 Гбайт (90%)
    Библиотека кодирования : XviD 73
    Аудио
    Идентификатор : 1
    Формат : AC-3
    Формат/Информация : Audio Coding 3
    Расширение режима : CM (complete main)
    Параметр Endianness формата : Big
    Идентификатор кодека : 2000
    Продолжительность : 1 ч. 46 м.
    Вид битрейта : Постоянный
    Битрейт : 192 Кбит/сек
    Каналы : 2 канала
    Расположение каналов : Front: L R
    Частота : 48,0 КГц
    Битовая глубина : 16 бит
    Метод сжатия : С потерями
    Размер потока : 146 Мбайт (10%)
    Выравнивание : Разделение по промежуткам
    Продолжительность промежутка : 42 мс. (1,00 видеокадр)
    Время предзагрузки промежутка : 500 мс.

    Скриншоты

    Релиз группы:

    -
    -
    Скачать .torrent

    Скачать торрент-файл бесплатно и на максимальной скорости!

    Как скачивать? · Что такое торрент? · Рейтинг и ограничения

    !ВНИМАНИЕ!
    Сайт не распространяет и не хранит электронные версии произведений, а занимается лишь лишь предоставлением доступа к создаваемому пользователями каталогу ссылок на торрент-файлы, которые содержат только списки хеш-сумм, убедительная просьба с жалобами обращаться напрямую к пользователю. Файлы для обмена на трекере предоставлены пользователями сайта, и администрация не несёт ответственности за их содержание. Просьба не заливать файлы, защищенные авторскими правами, а также файлы нелегального содержания!


    _________________
    [Профиль] [ЛС]
    Показать сообщения:    
    Ответить на тему

    Текущее время: Сегодня, в 20:50

    Часовой пояс: GMT + 2



    Вы не можете начинать темы
    Вы не можете отвечать на сообщения
    Вы не можете редактировать свои сообщения
    Вы не можете удалять свои сообщения
    Вы не можете голосовать в опросах
    Вы не можете прикреплять файлы к сообщениям
    Вы не можете скачивать файлы