BitTorrentTracker PerecTracker.org
BitTorrentTracker PerecTracker.org
    
Регистрация  ·  Вход
 
 · 
Забыли пароль?

  • Шепни, если забуду... / Unutursam F?s?lda (Чаган Ырмак / Cagan Irmak) [2014, Турция, Мелодрама, музыкальный, HDTVRip] DVO

    Ответить на тему
     
    Автор Сообщение

    Light

    Создавать темы 02-Апр-2015 20:54

           

    [Цитировать]

    Шепни, если забуду... / Unutursam Fısılda
    Страна: Турция, "TAFF Pictures"
    Жанр: Мелодрама, музыкальный
    Год выпуска: 2014
    Продолжительность: 01:53:10
    Перевод: Любительский (двухголосый закадровый) РАИМ и Ирина Котова
    Cубтитры: нет
    Оригинальная аудиодорожка: Турецкий

    Режиссер: Чаган Ырмак / Çagan Irmak
    В ролях: Фарах Зейнеп Абдуллах, Мехмет Гюнсюр, Керем Бюрсин, Хюмейра, Ышыл Юджесой, Гёзде Джигаджи
    Описание: Исполнитель роли Шехзаде Мустафы в сериале «Великолепный век», талантливый актер Мехмет Гюнсюр в новом художественном фильме под названием «Шепни, если забуду» режиссера Чагана Ырмака. В основу сценария положена история провинциальной девушки из бедной семьи по имени Айпери, которая с детства мечтала о сцене. Зрители узнают, как сложится жизненный путь главной героини, с какими преградами она столкнется, сможет ли осуществить свою мечту и стать знаменитой. Фильм повествует о двух любящих друг друга молодых людях, которые бросают всё в погоне за музыкальным олимпом... Айпери и Тарык едут в Стамбул за своей мечтой. Годы славы Айпери, ее разлука с селом, возвращение домой через много лет и расплата с прошлым. Обо всем об этом в фильме.
    Песни, которые прозвучат в фильме, исполняет сама Фаррах, а написаны они мужем Берен Саат - Кенаном Догулу.

    Доп. информация: Релиз фильма - shachter58.
    Перевод на русский язык - Оксана Романова, Эльвин Аскеров, Милена Гусейнова, Раяла Керимова,
    При содействии Виктории Коломиец и Ирины Котовой.
    Озвучивание двухголосое, закадровое: Ирина Котова и РАИМ.

    Сэмпл: http://multi-up.com/1041662
    Качество видео: HDTVRip
    Формат видео: AVI
    Видео: MPEG-4 Visual, XviD, 720x304 (1:2.35), 1 445 Kbps, 25.000 fps, Bits/(Pixel*Frame): 0.264
    Аудио: MPEG Audio, MP3, 2 ch, 44.1 KHz, 192 Kbps - Русский
    Аудио 2: MPEG Audio, MP3, 2 ch, 44.1 KHz, 128 Kbps - Турецкий

    MediaInfo

    General
    Complete name : F:\КИНО ТУРЦИИ\Shepni.esli.zabudu.2014.rus.Kotova.HDTVRip.avi
    Format : AVI
    Format/Info : Audio Video Interleave
    File size : 1.41 GiB
    Duration : 1h 53mn
    Overall bit rate : 1 779 Kbps
    Video #0
    ID : 0
    Format : MPEG-4 Visual
    Format profile : Advanced Simple@L5
    Format settings, BVOP : 2
    Format settings, QPel : No
    Format settings, GMC : No warppoints
    Format settings, Matrix : Default (H.263)
    Codec ID : XVID
    Codec ID/Hint : XviD
    Duration : 1h 53mn
    Bit rate : 1 445 Kbps
    Width : 720 pixels
    Height : 304 pixels
    Display aspect ratio : 2.35:1
    Frame rate : 25.000 fps
    Color space : YUV
    Chroma subsampling : 4:2:0
    Bit depth : 8 bits
    Scan type : Progressive
    Compression mode : Lossy
    Bits/(Pixel*Frame) : 0.264
    Stream size : 1.14 GiB (81%)
    Writing library : XviD 1.1.2 (UTC 2006-11-01)
    Audio #1
    ID : 1
    Format : MPEG Audio
    Format version : Version 1
    Format profile : Layer 3
    Codec ID : 55
    Codec ID/Hint : MP3
    Duration : 1h 53mn
    Bit rate mode : Constant
    Bit rate : 192 Kbps
    Channel(s) : 2 channels
    Sampling rate : 44.1 KHz
    Compression mode : Lossy
    Stream size : 155 MiB (11%)
    Alignment : Split accross interleaves
    Interleave, duration : 40 ms (1.00 video frame)
    Interleave, preload duration : 500 ms
    Writing library : LAME3.98r
    Encoding settings : -m s -V 4 -q 3 -lowpass 18.6 -b 192
    Audio #2
    ID : 2
    Format : MPEG Audio
    Format version : Version 1
    Format profile : Layer 3
    Mode : Joint stereo
    Mode extension : MS Stereo
    Codec ID : 55
    Codec ID/Hint : MP3
    Duration : 1h 53mn
    Bit rate mode : Constant
    Bit rate : 128 Kbps
    Channel(s) : 2 channels
    Sampling rate : 44.1 KHz
    Compression mode : Lossy
    Stream size : 104 MiB (7%)
    Alignment : Split accross interleaves
    Interleave, duration : 40 ms (1.00 video frame)
    Interleave, preload duration : 500 ms
    Writing library : LAME3.99.5

    Скриншот c названием фильма

    Скриншоты



    Скачать .torrent

    Скачать торрент-файл бесплатно и на максимальной скорости!

    Как скачивать? · Что такое торрент? · Рейтинг и ограничения

    !ВНИМАНИЕ!
    Сайт не распространяет и не хранит электронные версии произведений, а занимается лишь лишь предоставлением доступа к создаваемому пользователями каталогу ссылок на торрент-файлы, которые содержат только списки хеш-сумм, убедительная просьба с жалобами обращаться напрямую к пользователю. Файлы для обмена на трекере предоставлены пользователями сайта, и администрация не несёт ответственности за их содержание. Просьба не заливать файлы, защищенные авторскими правами, а также файлы нелегального содержания!


    _________________
    [Профиль] [ЛС]
    Показать сообщения:    
    Ответить на тему

    Текущее время: Сегодня, в 18:17

    Часовой пояс: GMT + 2



    Вы не можете начинать темы
    Вы не можете отвечать на сообщения
    Вы не можете редактировать свои сообщения
    Вы не можете удалять свои сообщения
    Вы не можете голосовать в опросах
    Вы не можете прикреплять файлы к сообщениям
    Вы не можете скачивать файлы