BitTorrentTracker PerecTracker.org
BitTorrentTracker PerecTracker.org
    
Регистрация  ·  Вход
 
 · 
Забыли пароль?

  • Самый жестокий год / A Most Violent Year (Джей Си Чендор / J.C. Chandor) [2014, США, боевик, триллер, драма, криминал, HDRip] VO (Paul Bunyan)

    Ответить на тему
     
    Автор Сообщение

    Light

    Создавать темы 02-Апр-2015 08:18

           

    [Цитировать]

    Самый жестокий год / A Most Violent Year
    Страна: США
    Жанр: боевик, триллер, драма, криминал
    Год выпуска: 2014
    Продолжительность: 02:04:56
    Перевод: Одноголосый закадровый Paul Bunyan
    Cубтитры: нет
    Режиссер: Джей Си Чендор / J.C. Chandor
    В ролях: Оскар Айзек, Джессика Честейн, Дэвид Ойелоуо, Алессандро Нивола, Альберт Брукс, Элиес Габел, Каталина Сандино Морено, Питер Герети, Кристофер Эбботт, Эшли Уильямс
    Описание: События фильма разворачиваются преимущественно на Манхэттене начала 1980-х годов, когда был зафиксирован всплеск уровня преступности. Главный герой — иммигрант из латинской Америки, прибывший в США с амбициозными мечтами и вскоре действительно добившийся большого успеха в бизнесе. Однако уличная преступность, охватившая Нью-Йорк, коррупция и моральное разложение создают для него и его семьи большие проблемы.
    Сэмпл: http://multi-up.com/1041588
    Качество видео: HDRip
    Формат видео: AVI
    Видео: XviD, 720x304, 23.976fps, 1116kbps
    Аудио: AC3, 48000Hz, 6ch, 448kbps

    MediaInfo

    Формат : AVI
    Формат/Информация : Audio Video Interleave
    Размер файла : 1,37 Гбайт
    Продолжительность : 2 ч. 4 м.
    Общий поток : 1573 Кбит/сек
    Программа кодирования : VirtualDubMod 1.5.10.3 | www.virtualdub-fr.org || (build 2550/release)
    Библиотека кодирования : VirtualDubMod build 2550/release
    Видео
    Идентификатор : 0
    Формат : MPEG-4 Visual
    Профиль формата : Advanced Simple@L5
    Параметр BVOP формата : 1
    Параметр QPel формата : Нет
    Параметр GMC формата : Без точки перехода
    Параметр матрицы формата : Default (MPEG)
    Идентификатор кодека : XVID
    Идентификатор кодека/Подсказка : XviD
    Продолжительность : 2 ч. 4 м.
    Битрейт : 1116 Кбит/сек
    Ширина : 720 пикселей
    Высота : 304 пикселя
    Соотношение сторон : 2,35:1
    Частота кадров : 23,976 кадра/сек
    Цветовое пространство : YUV
    Субдискретизация насыщенности : 4:2:0
    Битовая глубина : 8 бит
    Тип развёртки : Прогрессивная
    Метод сжатия : С потерями
    Бит/(Пиксели*Кадры) : 0.213
    Размер потока : 997 Мбайт (71%)
    Библиотека кодирования : XviD 57
    Аудио
    Идентификатор : 1
    Формат : AC-3
    Формат/Информация : Audio Coding 3
    Расширение режима : CM (complete main)
    Параметр Endianness формата : Big
    Идентификатор кодека : 2000
    Продолжительность : 2 ч. 4 м.
    Вид битрейта : Постоянный
    Битрейт : 448 Кбит/сек
    Каналы : 6 каналов
    Расположение каналов : Front: L C R, Side: L R, LFE
    Частота : 48,0 КГц
    Битовая глубина : 16 бит
    Метод сжатия : С потерями
    Размер потока : 400 Мбайт (28%)
    Выравнивание : Разделение по промежуткам
    Продолжительность промежутка : 42 мс. (1,00 видеокадр)
    Время предзагрузки промежутка : 500 мс.

    Скриншоты

    Сравнение
    http://screenshotcomparison.com/comparison/119594/picture:2 http://perectracker.org/viewtopic.php?t=4975095
    Скачать .torrent

    Скачать торрент-файл бесплатно и на максимальной скорости!

    Как скачивать? · Что такое торрент? · Рейтинг и ограничения

    !ВНИМАНИЕ!
    Сайт не распространяет и не хранит электронные версии произведений, а занимается лишь лишь предоставлением доступа к создаваемому пользователями каталогу ссылок на торрент-файлы, которые содержат только списки хеш-сумм, убедительная просьба с жалобами обращаться напрямую к пользователю. Файлы для обмена на трекере предоставлены пользователями сайта, и администрация не несёт ответственности за их содержание. Просьба не заливать файлы, защищенные авторскими правами, а также файлы нелегального содержания!


    _________________
    [Профиль] [ЛС]
    Показать сообщения:    
    Ответить на тему

    Текущее время: Сегодня, в 13:03

    Часовой пояс: GMT + 2



    Вы не можете начинать темы
    Вы не можете отвечать на сообщения
    Вы не можете редактировать свои сообщения
    Вы не можете удалять свои сообщения
    Вы не можете голосовать в опросах
    Вы не можете прикреплять файлы к сообщениям
    Вы не можете скачивать файлы