BitTorrentTracker PerecTracker.org
BitTorrentTracker PerecTracker.org
    
Регистрация  ·  Вход
 
 · 
Забыли пароль?

  • Последний бриллиант / Le dernier diamant / The Last Diamond (Эрик Барбье / Eric Barbier) [2014, Франция, Люксембург, Бельгия, драма, криминал, BDRip] MVO (R5) + Original (Fre)

    Ответить на тему
     
    Автор Сообщение

    Light

    Создавать темы 02-Апр-2015 04:06

           

    [Цитировать]

    Последний бриллиант / Le dernier diamant / The Last Diamond
    Год выпуска: 2014
    Страна: Франция, Люксембург, Бельгия
    Жанр: драма, криминал
    Продолжительность: 01:48:51
    Перевод: Профессиональный (многоголосый, закадровый)
    Субтитры: нет
    Оригинальная аудиодорожка: французский - отдельно
    Режиссер: Эрик Барбье / Eric Barbier
    В ролях: Иван Атталь (Simon), Беренис Бежо (Julia), Жан-Франсуа Стевенен (Albert), Антуан Баслер (Scylla), Жак Списсер (Pierre Neuville), Анни Корди (Inès de Boissière), Мишель Израэль (Jacques Galley), Шарли Дюпон (Michael Wurst), Дэниэль Дени (Blanche de Courcy), Гене Бервутс (Philippe de Mazières), Дэниэл Ханссенс (Mathieu Delcourt), Cecilia Guichart (L'attachée de presse)-Мировая премьера: 3 апреля 2014-Описание: Бывший заключенный втирается в доверие к дочери покойного эксперта-ювелира с целью выкрасть «Флорентийца», один из крупнейших в мире бриллиантов. Добившись своего и заменив драгоценность фальшивкой, мошенник передает бриллиант подельникам, которые тотчас же пытаются его убить. Потеряв в одночасье бриллиант и друзей-предателей, герой пытается удержать самое дорогое, что осталось в его жизни - полюбившую его девушку.-Рейтинг
    : 6.452 (806)
    : 6.20 (367)
    -Качество: BDRip
    Формат: AVI //SAMPLE//
    Видео: 720x304 (2.37:1), 24 fps, XviD build 66 ~1523 kbps avg, 0.29 bit/pixel
    Аудио RUS: 48 kHz, AC3 Dolby Digital, 3/2 (L,C,R,l,r) + LFE ch, ~384 kbps - MVO
    Аудио FRE: 48 kHz, AC3 Dolby Digital, 3/2 (L,C,R,l,r) + LFE ch, ~384 kbps - Original (Отдельно)

    MediaInfo

    Общее
    Полное имя : F:\Video\AVI\Films\Poslednij.Brilliant.2014.RUS.BDRip.XviD.AC3.-AllFilms\Poslednij.Brilliant.2014.RUS.BDRip.XviD.AC3.-AllFilms.avi
    Формат : AVI
    Формат/Информация : Audio Video Interleave
    Размер файла : 1,46 Гбайт
    Продолжительность : 1 ч. 48 м.
    Общий поток : 1917 Кбит/сек
    Название фильма : Последний бриллиант / The Last Diamond / Le dernier diamant (2014)
    Режиссёр : Shevon (Blu-Ray Disk)
    Программа кодирования : VirtualDubMod 1.5.10.3 | www.virtualdub-fr.org || (build 2550/release)
    Правообладатель : AllFilms (perectracker.org)
    Видео
    Идентификатор : 0
    Формат : MPEG-4 Visual
    Профиль формата : Advanced Simple@L5
    Параметр BVOP формата : 1
    Параметр QPel формата : Нет
    Параметр GMC формата : Без точки перехода
    Параметр матрицы формата : Выборочная
    Идентификатор кодека : XVID
    Идентификатор кодека/Подсказка : XviD
    Продолжительность : 1 ч. 48 м.
    Битрейт : 1524 Кбит/сек
    Ширина : 720 пикселей
    Высота : 304 пикселя
    Соотношение сторон : 2,35:1
    Частота кадров : 24,000 кадра/сек
    Цветовое пространство : YUV
    Субдискретизация насыщенности : 4:2:0
    Битовая глубина : 8 бит
    Тип развёртки : Прогрессивная
    Метод сжатия : С потерями
    Бит/(Пиксели*Кадры) : 0.290
    Размер потока : 1,16 Гбайт (80%)
    Библиотека кодирования : XviD 66
    Аудио
    Идентификатор : 1
    Формат : AC-3
    Формат/Информация : Audio Coding 3
    Расширение режима : CM (complete main)
    Параметр Endianness формата : Big
    Идентификатор кодека : 2000
    Продолжительность : 1 ч. 48 м.
    Вид битрейта : Постоянный
    Битрейт : 384 Кбит/сек
    Каналы : 6 каналов
    Расположение каналов : Front: L C R, Side: L R, LFE
    Частота : 48,0 КГц
    Битовая глубина : 16 бит
    Метод сжатия : С потерями
    Размер потока : 299 Мбайт (20%)
    Выравнивание : Разделение по промежуткам
    Продолжительность промежутка : 42 мс. (1,00 видеокадр)
    Время предзагрузки промежутка : 500 мс.

    Скриншоты


    -
    Скачать .torrent

    Скачать торрент-файл бесплатно и на максимальной скорости!

    Как скачивать? · Что такое торрент? · Рейтинг и ограничения

    !ВНИМАНИЕ!
    Сайт не распространяет и не хранит электронные версии произведений, а занимается лишь лишь предоставлением доступа к создаваемому пользователями каталогу ссылок на торрент-файлы, которые содержат только списки хеш-сумм, убедительная просьба с жалобами обращаться напрямую к пользователю. Файлы для обмена на трекере предоставлены пользователями сайта, и администрация не несёт ответственности за их содержание. Просьба не заливать файлы, защищенные авторскими правами, а также файлы нелегального содержания!


    _________________
    [Профиль] [ЛС]
    Показать сообщения:    
    Ответить на тему

    Текущее время: Сегодня, в 11:56

    Часовой пояс: GMT + 2



    Вы не можете начинать темы
    Вы не можете отвечать на сообщения
    Вы не можете редактировать свои сообщения
    Вы не можете удалять свои сообщения
    Вы не можете голосовать в опросах
    Вы не можете прикреплять файлы к сообщениям
    Вы не можете скачивать файлы