BitTorrentTracker PerecTracker.org
BitTorrentTracker PerecTracker.org
    
Регистрация  ·  Вход
 
 · 
Забыли пароль?

  • Призраки в Коннектикуте 2: Тени прошлого / The Haunting in Connecticut 2: Ghosts of Georgia (Том Элкинс / Tom Elkins) [2013 г., США, ужасы, триллер, драма, HDRip] Dub

    Ответить на тему
     
    Автор Сообщение

    Light

    Создавать темы 02-Апр-2015 04:06

           

    [Цитировать]

    -Призраки в Коннектикуте 2: Тени прошлого / The Haunting in Connecticut 2: Ghosts of Georgia--Год выпуска: 2013Страна: СШАЖанр: ужасы, триллер, драма-Продолжительность: 01:40:58Перевод: Профессиональный (дублированный) [лицензия]Субтитры: нет--Режиссер:Том Элкинс / Tom Elkins-В ролях:Эбигейл Спенсер, Эмили Элин Линд, Кэти Сакхофф, Чад Майкл Мюррэй, Грант Джеймс, Уэйн Пер, Лэнс Э. Николс, Джарен Митчелл, Сисели Тайсон, Сэм Полин-Описание:
    Девочка Хайди недавно переехала в Джорджию вместе со своими родителями. Однако жизнь на новом месте не задалась, так как ее начали терроризировать призраки. Вынужденные поверить в происходящее, родители пытаются выяснить причину паранормальных явлений.
    --Дополнительная информация:-
    -Сэмпл [ Рип совместим с бытовыми DVD-проигрывателями.--Качество видео: HDRip (Исходник: BDRip 1080p )
    Формат видео: AVI
    Видео: XviD build 73, 688x288 (2.39:1), 23.976 fps, XviD build 73 ~894 kbps avg, 0.19 bit/pixel
    Аудио: MPEG Layer 3, 2 ch, 48 kHz, 128.00 kbps avg (Dub)-

    Скриншоты



    Скриншот с названием

    MediaInfo

    General
    Complete name : \Prizraki_v_Konnektikute_2_(2013).HDRip.Dub.mp3_[All.Films][RG].avi
    Format : AVI
    Format/Info : Audio Video Interleave
    File size : 745 MiB
    Duration : 1h 40mn
    Overall bit rate : 1 032 Kbps
    Movie name : Призраки в Коннектикуте 2: Тени прошлого / The Haunting in Connecticut 2: Ghosts of Georgia (2013) HDRip | <VIRUS> [perectracker.org]
    Director : <VIRUS> [perectracker.org]
    Writing application : VirtualDubMod 1.5.10.3 | www.virtualdub-fr.org || (build 2550/release)
    Copyright : [perectracker.org]
    Video
    ID : 0
    Format : MPEG-4 Visual
    Format profile : Advanced Simple@L5
    Format settings, BVOP : 2
    Format settings, QPel : No
    Format settings, GMC : No warppoints
    Format settings, Matrix : Custom
    Codec ID : XVID
    Codec ID/Hint : XviD
    Duration : 1h 40mn
    Bit rate : 894 Kbps
    Width : 688 pixels
    Height : 288 pixels
    Display aspect ratio : 2.40:1
    Frame rate : 23.976 fps
    Color space : YUV
    Chroma subsampling : 4:2:0
    Bit depth : 8 bits
    Scan type : Progressive
    Compression mode : Lossy
    Bits/(Pixel*Frame) : 0.188
    Stream size : 646 MiB (87%)
    Writing library : XviD 73
    Audio
    ID : 1
    Format : MPEG Audio
    Format version : Version 1
    Format profile : Layer 3
    Codec ID : 55
    Codec ID/Hint : MP3
    Duration : 1h 40mn
    Bit rate mode : Constant
    Bit rate : 128 Kbps
    Channel(s) : 2 channels
    Sampling rate : 48.0 KHz
    Compression mode : Lossy
    Stream size : 92.4 MiB (12%)
    Alignment : Aligned on interleaves
    Interleave, duration : 42 ms (1.00 video frame)
    Interleave, preload duratio : 504 ms
    Writing library : LAME3.99r
    Encoding settings : -m s -V 4 -q 0 -lowpass 17 -b 128
    Скачать .torrent

    Скачать торрент-файл бесплатно и на максимальной скорости!

    Как скачивать? · Что такое торрент? · Рейтинг и ограничения

    !ВНИМАНИЕ!
    Сайт не распространяет и не хранит электронные версии произведений, а занимается лишь лишь предоставлением доступа к создаваемому пользователями каталогу ссылок на торрент-файлы, которые содержат только списки хеш-сумм, убедительная просьба с жалобами обращаться напрямую к пользователю. Файлы для обмена на трекере предоставлены пользователями сайта, и администрация не несёт ответственности за их содержание. Просьба не заливать файлы, защищенные авторскими правами, а также файлы нелегального содержания!


    _________________
    [Профиль] [ЛС]
    Показать сообщения:    
    Ответить на тему

    Текущее время: Сегодня, в 14:39

    Часовой пояс: GMT + 2



    Вы не можете начинать темы
    Вы не можете отвечать на сообщения
    Вы не можете редактировать свои сообщения
    Вы не можете удалять свои сообщения
    Вы не можете голосовать в опросах
    Вы не можете прикреплять файлы к сообщениям
    Вы не можете скачивать файлы