BitTorrentTracker PerecTracker.org
BitTorrentTracker PerecTracker.org
    
Регистрация  ·  Вход
 
 · 
Забыли пароль?

  • Трефовая дама / Dame de Trefle (Филипп Вено / Philippe Venault) [2012, Франция, детектив, триллер, HDTV 1080i] DVO (ТПО Ред Медиа)

    Ответить на тему
     
    Автор Сообщение

    Flirldrerve

    Создавать темы 01-Апр-2015 23:54

           

    [Цитировать]

    Трефовая дама / Dame de Trefle
    Страна: Франция
    Студия: Dajma, France 2
    Жанр: детектив, триллер
    Год выпуска: 2012
    Продолжительность: 01:31:23
    Перевод: Профессиональный (двухголосый закадровый) ТПО Ред Медиа
    Cубтитры: нет
    Оригинальная аудиодорожка: нет
    Режиссер: Филипп Вено / Philippe Venault
    В ролях: Тьерри Годар, Валери Декобер-Корецки, Жан-Туссен Бернард, Софи-Шарлотт Юссон, Клара Понсо и другие.
    Описание:
    Находят раненную молодую женщину, всю в крови. Прежде чем потерять сознание, она просит спасателя прийти на помощь своим детям. Откладывая свои личные проблемы, Мартен вступает в преследование человека, который хочет убить детей…

    Доп. информация: Фильмы про детектива Марстена.
    Первый: Червовая дама - Dame de coeur (2011)
    Второй: Пиковая дама - Dame de Pique (2011)
    Третий: Бубновая дама - Dame de Carreau (2012)
    Четвертый: Трефовая дама - Dame de Trefle (2012)
    Сэмпл: http://multi-up.com/1041350
    Тип релиза: HDTV 1080i
    Контейнер: TS
    Видео: AVC, 1920x1080, (16:9), 25 fps, 6.5 Mbps
    Аудио: Русский, MP2, 48 kHz, 2 ch, 192 kbps

    MediaInfo

    General
    ID : 1 (0x1)
    Complete name : D:\Трефовая дама_2012_HDTV 1080i_RU.ts
    Format : MPEG-TS
    File size : 4.49 GiB
    Duration : 1h 31mn
    Overall bit rate mode : Variable
    Overall bit rate : 7 003 Kbps
    Video
    ID : 323 (0x143)
    Menu ID : 12103 (0x2F47)
    Format : AVC
    Format/Info : Advanced Video Codec
    Format profile : High@L4.0
    Format settings, CABAC : Yes
    Format settings, ReFrames : 4 frames
    Codec ID : 27
    Duration : 1h 31mn
    Bit rate : 6 463 Kbps
    Width : 1 920 pixels
    Height : 1 080 pixels
    Display aspect ratio : 16:9
    Frame rate : 25.000 fps
    Standard : Component
    Color space : YUV
    Chroma subsampling : 4:2:0
    Bit depth : 8 bits
    Scan type : Interlaced
    Scan order : Top Field First
    Bits/(Pixel*Frame) : 0.125
    Stream size : 4.15 GiB (92%)
    Color primaries : BT.709
    Transfer characteristics : BT.709
    Matrix coefficients : BT.709
    Color range : Limited
    Audio
    ID : 403 (0x193)
    Menu ID : 12103 (0x2F47)
    Format : MPEG Audio
    Format version : Version 1
    Format profile : Layer 2
    Codec ID : 3
    Duration : 1h 31mn
    Bit rate mode : Constant
    Bit rate : 192 Kbps
    Channel(s) : 2 channels
    Sampling rate : 48.0 KHz
    Compression mode : Lossy
    Stream size : 126 MiB (3%)
    Language : Russian

    Скриншоты

    Скачать .torrent

    Скачать торрент-файл бесплатно и на максимальной скорости!

    Как скачивать? · Что такое торрент? · Рейтинг и ограничения

    !ВНИМАНИЕ!
    Сайт не распространяет и не хранит электронные версии произведений, а занимается лишь лишь предоставлением доступа к создаваемому пользователями каталогу ссылок на торрент-файлы, которые содержат только списки хеш-сумм, убедительная просьба с жалобами обращаться напрямую к пользователю. Файлы для обмена на трекере предоставлены пользователями сайта, и администрация не несёт ответственности за их содержание. Просьба не заливать файлы, защищенные авторскими правами, а также файлы нелегального содержания!


    _________________
    [Профиль] [ЛС]
    Показать сообщения:    
    Ответить на тему

    Текущее время: Сегодня, в 02:06

    Часовой пояс: GMT + 2



    Вы не можете начинать темы
    Вы не можете отвечать на сообщения
    Вы не можете редактировать свои сообщения
    Вы не можете удалять свои сообщения
    Вы не можете голосовать в опросах
    Вы не можете прикреплять файлы к сообщениям
    Вы не можете скачивать файлы