BitTorrentTracker PerecTracker.org
BitTorrentTracker PerecTracker.org
    
Регистрация  ·  Вход
 
 · 
Забыли пароль?

  • Смотри в оба! (Эльдор Уразбаев) [1981, война, приключения, TVRip]

    Ответить на тему
     
    Автор Сообщение

    Light

    Создавать темы 01-Апр-2015 19:42

           

    [Цитировать]

    Смотри в оба!
    Жанр: война, приключения
    Год выпуска: 1981
    Продолжительность: 01:13:17
    Режиссёр: Эльдор Уразбаев
    Сценарист: Александр Бородянский
    Оператор: Вадим Алисов
    Композитор: Эдуард Хагагортян
    Художник: Семен Веледницкий
    Производство: Киностудия им.Горького
    В ролях:
    Борислав Брондуков — механик Лыкин
    Фёдор Сухов — уполномоченный Алексей Команов (озвучил Владимир Конкин)
    Алексей Серебряков — беспризорник Михаил "Тореадор" Комаров
    Александр Яковлев — атаман банды Филин
    Виктор Ильичёв— член банды «Длинный» ("Фитиль")
    Юрий Дубровин — член банды Митя
    Светлана Орлова — сестра милосердия Анастасия
    Нина Алисова — игуменья
    Нартай Бегалин — белогвардеец Илдар
    Николай Горлов — священнослужитель отец Егорий
    Людмила Кузьмина — красный командир
    Александр Лебедев — красноармеец Платов
    Раднэр Муратов — Закиров
    Анатолий Скорякин — Колбасюк
    Николай Смирнов — комиссар
    Леонид Трутнев — есаул Говорухин
    Описание: Сюжет разворачивается в 1921 году, в конце Гражданской войны. Молодой комсомолец Алексей Команов получает задание Ревкома отправить на буксире тёплые вещи в Петроград для детской коммуны. Команову дают в помощники некоего Лыкина, отрекомендовавшегося механиком, так как необходимо было наладить барахливший мотор речного буксира. «Смотри за этим фруктом в оба!» — сказал представитель ревкома Команову, давая понять, что необходимо присматривать за этим пронырливым, бойким на язык мужичонкой.
    Замечательная остросюжетная лента Эльдора Уразбаева ("Визит к Минотавру", "Инспектор ГАИ") по сценарию Александра Бородянского ("Афоня", "Зимний вечер в Гаграх", "Курьер"). По признанию самого Борислава Брондукова роль Лыкина - его любимая.
    Доп. информация: Рип с раздачи: http://perectracker.org/viewtopic.php?t=4136429 (огромная благодарность Valeronius за качественный TVRip). Доработка: убран логотип телеканала, удалена реклама-анонс без ущерба для картинки.
    Семпл: https://yadi.sk/i/CNULUoH6fgHeV
    Качество видео: TVRip
    Формат видео: AVI
    Видео: DivX, 688х336 (1х2,05), 2398 Кбит/сек, 25,000 кадров/сек
    Аудио: MPEG Audio Version 1 Layer 3, 44,1 КГц, 256 Кбит/сек, 2 канала

    MediaInfo

    Общее
    Полное имя : D:\TORRENTS\Смотри в оба_1,36.DivX\Смотри в
    оба.avi
    Формат : AVI
    Формат/Информация : Audio Video Interleave
    Размер файла : 1,36 Гбайт
    Продолжительность : 1 ч. 13 м.
    Общий поток : 2664 Кбит/сек
    Программа кодирования : VirtualDubMod 1.5.10.2 (build 2540/release)
    Библиотека кодирования : VirtualDub build 35491/release
    Видео
    Идентификатор : 0
    Формат : MPEG-4 Visual
    Параметр BVOP формата : Да
    Параметр QPel формата : Нет
    Параметр GMC формата : Без точки перехода
    Параметр матрицы формата : Default (H.263)
    Идентификатор кодека : DX50
    Идентификатор кодека/Подсказка : DivX 5
    Продолжительность : 1 ч. 13 м.
    Битрейт : 2398 Кбит/сек
    Ширина : 688 пикселей
    Высота : 336 пикселей
    Соотношение сторон : 2,048
    Частота кадров : 25,000 кадров/сек
    Цветовое пространство : YUV
    Субдискретизация насыщенности : 4:2:0
    Битовая глубина : 8 бит
    Тип развёртки : Прогрессивная
    Метод сжатия : С потерями
    Бит/(Пиксели*Кадры) : 0.415
    Размер потока : 1,23 Гбайт (90%)
    Библиотека кодирования : DivX 6.8.3-6.8.4 (UTC 2008-06-07)
    Аудио
    Идентификатор : 1
    Формат : MPEG Audio
    Версия формата : Version 1
    Профиль формата : Layer 3
    Идентификатор кодека : 55
    Идентификатор кодека/Подсказка : MP3
    Продолжительность : 1 ч. 13 м.
    Вид битрейта : Постоянный
    Битрейт : 256 Кбит/сек
    Каналы : 2 канала
    Частота : 44,1 КГц
    Метод сжатия : С потерями
    Размер потока : 134 Мбайт (10%)
    Выравнивание : Разделение по промежуткам
    Продолжительность промежутка : 40 мс. (1,00 видеокадр)
    Время предзагрузки промежутка : 500 мс.
    Библиотека кодирования : LAME3.98
    Скриншоты
    Скачать .torrent

    Скачать торрент-файл бесплатно и на максимальной скорости!

    Как скачивать? · Что такое торрент? · Рейтинг и ограничения

    !ВНИМАНИЕ!
    Сайт не распространяет и не хранит электронные версии произведений, а занимается лишь лишь предоставлением доступа к создаваемому пользователями каталогу ссылок на торрент-файлы, которые содержат только списки хеш-сумм, убедительная просьба с жалобами обращаться напрямую к пользователю. Файлы для обмена на трекере предоставлены пользователями сайта, и администрация не несёт ответственности за их содержание. Просьба не заливать файлы, защищенные авторскими правами, а также файлы нелегального содержания!


    _________________
    [Профиль] [ЛС]
    Показать сообщения:    
    Ответить на тему

    Текущее время: Сегодня, в 02:58

    Часовой пояс: GMT + 2



    Вы не можете начинать темы
    Вы не можете отвечать на сообщения
    Вы не можете редактировать свои сообщения
    Вы не можете удалять свои сообщения
    Вы не можете голосовать в опросах
    Вы не можете прикреплять файлы к сообщениям
    Вы не можете скачивать файлы