BitTorrentTracker PerecTracker.org
BitTorrentTracker PerecTracker.org
    
Регистрация  ·  Вход
 
 · 
Забыли пароль?

  • Адвокат / Убийство на Монастырских прудах (Искандер Хамраев) [1990, криминальная драма, детектив, DVB]

    Ответить на тему
     
    Автор Сообщение

    Light

    Создавать темы 01-Апр-2015 11:18

           

    [Цитировать]

    Адвокат / Убийство на Монастырских прудах
    Жанр: криминальная драма, детектив
    Год выпуска: 1990
    Продолжительность: 01:07:10 + 01:11:24 + 01:03:14
    Режиссёр: Искандер Хамраев
    В ролях: Андрей Ташков, Юозас Киселюс, Владимир Меньшов, Михаил Глузский, Майя Булгакова, Виктор Павлов, Денис Сердюков, Ян Пузыревский, Вера Лапшова, Александр Семенов, Даниил Лапигин, Валерий Ивченко, Эрнст Романов, Олег Корчиков, Ольга Агеева, Леонард Варфоломеев, Александр Белина, Алексей Миронов, Вадим Яковлев, Сергей Лосев, Валентина Ананьина, Тамара Тимофеева, Геннадий Нилов, Валентина Пугачёва, Борис Аракелов, Георгий Тейх, Николай Крюков, Эвелина Блёданс
    Описание: В ночь, когда было совершено убийство высокопоставленного чиновника, милиция задерживает банду рокеров, пьянствующую недалеко от места преступления. Капитан Рогалев и следователь Авдеев по приказу "сверху" должны раскрыть убийство любой ценой.
    Доп. информация:
    Сравнение с DVD
    Сравнение с каналом Звезда
    Семпл
    Качество видео: DVB
    Формат видео: MPEG-PS
    Видео: MPEG2 Video 720x576 (4:3) 25fps ~6100 kbps
    Аудио: MPEG Audio 48000Hz stereo 192kbps
    MediaInfo

    1 серия

    Адвокат 1 серия.mpg
    Format : MPEG-PS
    File size : 2.87 GiB
    Duration : 1h 7mn
    Overall bit rate mode : Variable
    Overall bit rate : 6 118 Kbps
    Video
    ID : 224 (0xE0)
    Format : MPEG Video
    Format version : Version 2
    Format profile : Main@Main
    Format settings, BVOP : Yes
    Format settings, Matrix : Custom
    Format settings, GOP : Variable
    Duration : 1h 7mn
    Bit rate mode : Variable
    Bit rate : 5 805 Kbps
    Maximum bit rate : 15.0 Mbps
    Width : 720 pixels
    Height : 576 pixels
    Display aspect ratio : 4:3
    Frame rate : 25.000 fps
    Standard : PAL
    Color space : YUV
    Chroma subsampling : 4:2:0
    Bit depth : 8 bits
    Scan type : Interlaced
    Scan order : Top Field First
    Compression mode : Lossy
    Bits/(Pixel*Frame) : 0.560
    Time code of first frame : 00:00:00:00
    Time code source : Group of pictures header
    Stream size : 2.72 GiB (95%)
    Audio
    ID : 192 (0xC0)
    Format : MPEG Audio
    Format version : Version 1
    Format profile : Layer 2
    Duration : 1h 7mn
    Bit rate mode : Constant
    Bit rate : 192 Kbps
    Channel(s) : 2 channels
    Sampling rate : 48.0 KHz
    Compression mode : Lossy
    Delay relative to video : -17ms
    Stream size : 92.2 MiB (3%)

    2 серия

    Адвокат 2 серия.mpg
    Format : MPEG-PS
    File size : 3.05 GiB
    Duration : 1h 11mn
    Overall bit rate mode : Variable
    Overall bit rate : 6 118 Kbps
    Video
    ID : 224 (0xE0)
    Format : MPEG Video
    Format version : Version 2
    Format profile : Main@Main
    Format settings, BVOP : Yes
    Format settings, Matrix : Custom
    Format settings, GOP : Variable
    Duration : 1h 11mn
    Bit rate mode : Variable
    Bit rate : 5 804 Kbps
    Maximum bit rate : 15.0 Mbps
    Width : 720 pixels
    Height : 576 pixels
    Display aspect ratio : 4:3
    Frame rate : 25.000 fps
    Standard : PAL
    Color space : YUV
    Chroma subsampling : 4:2:0
    Bit depth : 8 bits
    Scan type : Interlaced
    Scan order : Top Field First
    Compression mode : Lossy
    Bits/(Pixel*Frame) : 0.560
    Time code of first frame : 00:00:00:00
    Time code source : Group of pictures header
    Stream size : 2.89 GiB (95%)
    Audio
    ID : 192 (0xC0)
    Format : MPEG Audio
    Format version : Version 1
    Format profile : Layer 2
    Duration : 1h 11mn
    Bit rate mode : Constant
    Bit rate : 192 Kbps
    Channel(s) : 2 channels
    Sampling rate : 48.0 KHz
    Compression mode : Lossy
    Delay relative to video : -9ms
    Stream size : 98.0 MiB (3%)

    3 серия

    Адвокат 3 серия.mpg
    Format : MPEG-PS
    File size : 2.70 GiB
    Duration : 1h 3mn
    Overall bit rate mode : Variable
    Overall bit rate : 6 118 Kbps
    Video
    ID : 224 (0xE0)
    Format : MPEG Video
    Format version : Version 2
    Format profile : Main@Main
    Format settings, BVOP : Yes
    Format settings, Matrix : Custom
    Format settings, GOP : Variable
    Duration : 1h 3mn
    Bit rate mode : Variable
    Bit rate : 5 804 Kbps
    Maximum bit rate : 15.0 Mbps
    Width : 720 pixels
    Height : 576 pixels
    Display aspect ratio : 4:3
    Frame rate : 25.000 fps
    Standard : PAL
    Color space : YUV
    Chroma subsampling : 4:2:0
    Bit depth : 8 bits
    Scan type : Interlaced
    Scan order : Top Field First
    Compression mode : Lossy
    Bits/(Pixel*Frame) : 0.560
    Time code of first frame : 00:00:00:00
    Time code source : Group of pictures header
    Stream size : 2.56 GiB (95%)
    Audio
    ID : 192 (0xC0)
    Format : MPEG Audio
    Format version : Version 1
    Format profile : Layer 2
    Duration : 1h 3mn
    Bit rate mode : Constant
    Bit rate : 192 Kbps
    Channel(s) : 2 channels
    Sampling rate : 48.0 KHz
    Compression mode : Lossy
    Delay relative to video : 7ms
    Stream size : 86.8 MiB (3%)

    Скриншоты

    Скачать .torrent

    Скачать торрент-файл бесплатно и на максимальной скорости!

    Как скачивать? · Что такое торрент? · Рейтинг и ограничения

    !ВНИМАНИЕ!
    Сайт не распространяет и не хранит электронные версии произведений, а занимается лишь лишь предоставлением доступа к создаваемому пользователями каталогу ссылок на торрент-файлы, которые содержат только списки хеш-сумм, убедительная просьба с жалобами обращаться напрямую к пользователю. Файлы для обмена на трекере предоставлены пользователями сайта, и администрация не несёт ответственности за их содержание. Просьба не заливать файлы, защищенные авторскими правами, а также файлы нелегального содержания!


    _________________
    [Профиль] [ЛС]
    Показать сообщения:    
    Ответить на тему

    Текущее время: Сегодня, в 12:50

    Часовой пояс: GMT + 2



    Вы не можете начинать темы
    Вы не можете отвечать на сообщения
    Вы не можете редактировать свои сообщения
    Вы не можете удалять свои сообщения
    Вы не можете голосовать в опросах
    Вы не можете прикреплять файлы к сообщениям
    Вы не можете скачивать файлы