BitTorrentTracker PerecTracker.org
BitTorrentTracker PerecTracker.org
    
Регистрация  ·  Вход
 
 · 
Забыли пароль?

  • Я есть / Млечный путь / As esu (Ромуальдас Лилейкис / Romualds Lileikis, Стасис Мотеюнас / Stasis Motiejunas) [1989, Драма, экранизация, TVRip-AVC] VO + Sub Rus + Original Lit

    Ответить на тему
     
    Автор Сообщение

    Light

    Создавать темы 01-Апр-2015 07:06

           

    [Цитировать]

    Я есть / Млечный путь / Aš esu
    Страна: СССР (Литовская киностудия)
    Жанр: Драма, экранизация
    Год выпуска: 1989
    Продолжительность: 01:04:27
    Перевод: Одноголосый закадровый
    Cубтитры: русские
    Оригинальная аудиодорожка: литовский
    Режиссер: Ромуальдас Лилейкис / Romualds Lileikis , Стасис Мотеюнас / Stasis Motiejūnas
    В ролях: Гедрюс Чайкаускас, Владас Багдонас, Повилас Будрис, Неле Савиченко-Климене, Рута Сталилюнайте, Мингайле Казлаускайте
    Описание: Поэтическая повесть. Импровизация по мотивам повести А.Маркявичюса "Привидения из подземелья".
    В старом районе Вильнюса живёт мальчик Йонукас, необыкновенный фантазёр. Живёт с бабушкой, тоскует по маме, которая постоянно пропадает из дома. Отца у него нет и не было. Бабушка нежно иронизирует: "Ты от святого духа." Йонукас впитывает в себя бурлящую вокруг жизнь. Его притягивает прошлое, мучают совсем не детские проблемы бытия.
    Доп. информация: Главный приз международного кинофестиваля в Коста де Эсторильо (Португалия) "Золотая чайка" (1990)
    Сэмпл: http://multi-up.com/1041450
    Качество видео: TVRip-AVC
    Формат видео: MKV
    Видео: AVC at 1200 Кбит/сек : 720 x 576 (1.250) at 25.000 fps
    Аудио 1: MPEG Audio at 128 Кбит/сек : 2 канала, 44,1 КГц Language : ru
    Аудио 2: MPEG Audio at 128 Кбит/сек : 2 канала, 44,1 КГц Language : lt
    Формат субтитров: softsub (SRT)
    Доп. информация о субтитрах: Русские внешние (Оксана Добрыня)

    MediaInfo

    Общее
    Уникальный идентификатор : 244058747945484126559667147745028443497 (0xB79C014D4D568B5AAAEDF12A853B8D69)
    Полное имя : F:\С моей озвучкой\Млечный путь\As.esu.1989.mkv
    Формат : Matroska
    Версия формата : Version 4 / Version 2
    Размер файла : 671 Мбайт
    Продолжительность : 1 ч. 4 м.
    Режим общего битрейта : Постоянный
    Общий поток : 1457 Кбит/сек
    Дата кодирования : UTC 2015-03-31 20:26:11
    Программа кодирования : mkvmerge v6.1.0 ('Old Devil') built on Mar 4 2013 09:10:42
    Библиотека кодирования : libebml v1.3.0 + libmatroska v1.4.0
    Видео
    Идентификатор : 1
    Формат : AVC
    Формат/Информация : Advanced Video Codec
    Профиль формата : High@L3.0
    Параметр CABAC формата : Да
    Параметр ReFrames формата : 2 кадра
    Идентификатор кодека : V_MPEG4/ISO/AVC
    Продолжительность : 1 ч. 4 м.
    Вид битрейта : Постоянный
    Битрейт : 1200 Кбит/сек
    Ширина : 720 пикселей
    Высота : 576 пикселей
    Соотношение сторон : 5:4
    Режим частоты кадров : Постоянный
    Частота кадров : 25,000 кадров/сек
    Стандарт вещания : PAL
    Цветовое пространство : YUV
    Субдискретизация насыщенности : 4:2:0
    Битовая глубина : 8 бит
    Тип развёртки : Прогрессивная
    Бит/(Пиксели*Кадры) : 0.116
    Размер потока : 540 Мбайт (80%)
    Default : Да
    Forced : Нет
    Основные цвета : BT.601 PAL
    Характеристики трансфера : BT.470 System B, BT.470 System G
    Коэффициенты матрицы : BT.601
    Аудио #1
    Идентификатор : 2
    Формат : MPEG Audio
    Версия формата : Version 1
    Профиль формата : Layer 3
    Режим : Joint stereo
    Расширение режима : MS Stereo
    Идентификатор кодека : A_MPEG/L3
    Идентификатор кодека/Подсказка : MP3
    Продолжительность : 1 ч. 4 м.
    Вид битрейта : Постоянный
    Битрейт : 128 Кбит/сек
    Каналы : 2 канала
    Частота : 44,1 КГц
    Метод сжатия : С потерями
    Размер потока : 59,0 Мбайт (9%)
    Библиотека кодирования : LAME3.96
    Язык : Russian
    Default : Нет
    Forced : Нет
    Аудио #2
    Идентификатор : 3
    Формат : MPEG Audio
    Версия формата : Version 1
    Профиль формата : Layer 3
    Идентификатор кодека : A_MPEG/L3
    Идентификатор кодека/Подсказка : MP3
    Продолжительность : 1 ч. 4 м.
    Вид битрейта : Постоянный
    Битрейт : 128 Кбит/сек
    Каналы : 2 канала
    Частота : 44,1 КГц
    Метод сжатия : С потерями
    Размер потока : 59,0 Мбайт (9%)
    Язык : Lithuanian
    Default : Нет
    Forced : Нет

    Скриншоты

    Скачать .torrent

    Скачать торрент-файл бесплатно и на максимальной скорости!

    Как скачивать? · Что такое торрент? · Рейтинг и ограничения

    !ВНИМАНИЕ!
    Сайт не распространяет и не хранит электронные версии произведений, а занимается лишь лишь предоставлением доступа к создаваемому пользователями каталогу ссылок на торрент-файлы, которые содержат только списки хеш-сумм, убедительная просьба с жалобами обращаться напрямую к пользователю. Файлы для обмена на трекере предоставлены пользователями сайта, и администрация не несёт ответственности за их содержание. Просьба не заливать файлы, защищенные авторскими правами, а также файлы нелегального содержания!


    _________________
    [Профиль] [ЛС]
    Показать сообщения:    
    Ответить на тему

    Текущее время: Сегодня, в 05:10

    Часовой пояс: GMT + 2



    Вы не можете начинать темы
    Вы не можете отвечать на сообщения
    Вы не можете редактировать свои сообщения
    Вы не можете удалять свои сообщения
    Вы не можете голосовать в опросах
    Вы не можете прикреплять файлы к сообщениям
    Вы не можете скачивать файлы