BitTorrentTracker PerecTracker.org
BitTorrentTracker PerecTracker.org
    
Регистрация  ·  Вход
 
 · 
Забыли пароль?

  • Чемпион мира (Владимир Гончуков) [1954, Спорт, драма, SATRip]

    Ответить на тему
     
    Автор Сообщение

    Light

    Создавать темы 01-Апр-2015 02:54

           

    [Цитировать]

    Чемпион мира
    Жанр: Спорт, драма
    Страна: СССР
    Студия: Киностудия им. М.Горького
    Год выпуска: 1954
    Продолжительность: 01:20:44.000 (121100 frames)
    Режиссёр: Владимир Гончуков
    В ролях: Алексей Ванин, Василий Меркурьев, Владимир Гуляев, Надежда Чередниченко, Клавдия Хабарова, Муза Крепкогорская, Ратмир Васютинский, Анатолий Васютинский, Анатолий Соловьев, Николай Комиссаров, Борис Терентьев, Георгий Светлани, Галина Фролова, Владимир Володин, Владимир Марута, Константин Михайлов, Иван Рыжов, Дмитрий Андреев, Валентина Телегина, Дмитрий Кара-Дмитриев, Алексей Петроченко, Вениамин Белоглазов, Вячеслав Гостинский, Аркадий Цинман, Клавдия Козлёнкова, Иван Косых, Лев Лобов, Роман Филиппов, Иван Матвеев, Исаак Леонгаров
    Описание: История простого деревенского парня - кузнеца и спортсмена, - сумевшего завоевать звание чемпиона мира по классической борьбе…
    Дополнительная информация: Релиз:
    Автор рипа: pmv
    Большое спасибо за:
    - Исходник DVB (http://perectracker.org/viewtopic.php?t=4973706) - Cheef mate
    (Запись потока *.ts со спутника Ямал 202, 49° в.д., с ТК «ТВЦ»)
    IMDb = - -
    Кинопоиск = 5.880 (60) -
    * На видео местами баннеры с названием фильма (на одном из скринов его можно увидеть).
    * Прокат (1955, 12 место) - 27.9 млн зрителей.

    ПРОСЬБА к СКАЧАВШИМ. НЕ УХОДИТЕ С РАЗДАЧИ, ПОМОГИТЕ ДРУГИМ СКАЧАТЬ!!!
    Качество видео: SATRip
    Формат видео: AVI
    Видео: 720x544 (1.32:1), 25 fps, XviD build 73 ~2317 kbps avg, 0.24 bit/pixel
    Аудио: 48 kHz, MPEG Layer 3, 2 ch, ~128.00 kbps avg

    MediaInfo

    General
    Complete name : D:\torrents\Чемпион мира (1954).avi
    Format : AVI
    Format/Info : Audio Video Interleave
    File size : 1.38 GiB
    Duration : 1h 20mn
    Overall bit rate : 2 455 Kbps
    Writing library : VirtualDub build 35576/release
    Video
    ID : 0
    Format : MPEG-4 Visual
    Format profile : Advanced Simple@L5
    Format settings, BVOP : Yes
    Format settings, QPel : No
    Format settings, GMC : No warppoints
    Format settings, Matrix : Default (H.263)
    Codec ID : XVID
    Codec ID/Hint : XviD
    Duration : 1h 20mn
    Bit rate : 2 318 Kbps
    Width : 720 pixels
    Height : 544 pixels
    Display aspect ratio : 4:3
    Frame rate : 25.000 fps
    Resolution : 8 bits
    Colorimetry : 4:2:0
    Scan type : Progressive
    Bits/(Pixel*Frame) : 0.237
    Stream size : 1.31 GiB (94%)
    Writing library : XviD 73
    Audio
    ID : 1
    Format : MPEG Audio
    Format version : Version 1
    Format profile : Layer 3
    Format_Settings_Mode : Joint stereo
    Codec ID : 55
    Codec ID/Hint : MP3
    Duration : 1h 20mn
    Bit rate mode : Constant
    Bit rate : 128 Kbps
    Channel(s) : 2 channels
    Sampling rate : 48.0 KHz
    Stream size : 73.9 MiB (5%)
    Alignment : Split accross interleaves
    Interleave, duration : 40 ms (1.00 video frame)
    Interleave, preload duration : 500 ms

    Скриншоты с названием фильма

    Скриншоты

    МОИ РАЗДАЧИ НА РУТРЕКЕРЕ: http://perectracker.org/tracker.php?rid=27390064
    Скачать .torrent

    Скачать торрент-файл бесплатно и на максимальной скорости!

    Как скачивать? · Что такое торрент? · Рейтинг и ограничения

    !ВНИМАНИЕ!
    Сайт не распространяет и не хранит электронные версии произведений, а занимается лишь лишь предоставлением доступа к создаваемому пользователями каталогу ссылок на торрент-файлы, которые содержат только списки хеш-сумм, убедительная просьба с жалобами обращаться напрямую к пользователю. Файлы для обмена на трекере предоставлены пользователями сайта, и администрация не несёт ответственности за их содержание. Просьба не заливать файлы, защищенные авторскими правами, а также файлы нелегального содержания!


    _________________
    [Профиль] [ЛС]
    Показать сообщения:    
    Ответить на тему

    Текущее время: Сегодня, в 07:57

    Часовой пояс: GMT + 2



    Вы не можете начинать темы
    Вы не можете отвечать на сообщения
    Вы не можете редактировать свои сообщения
    Вы не можете удалять свои сообщения
    Вы не можете голосовать в опросах
    Вы не можете прикреплять файлы к сообщениям
    Вы не можете скачивать файлы