BitTorrentTracker PerecTracker.org
BitTorrentTracker PerecTracker.org
    
Регистрация  ·  Вход
 
 · 
Забыли пароль?

  • Ритмично напевая / Поднимая дух / Lilting (Хун Хау / Hong Khaou) [2014 г., драма, гей-тема, BDRip-AVC] VO (Kirill Ivanov) + Original (Eng) + Sub (Rus)

    Ответить на тему
     
    Автор Сообщение

    Light

    Создавать темы 01-Апр-2015 02:54

           

    [Цитировать]

    Ритмично напевая / Поднимая дух / Lilting
    Страна: Великобритания
    Жанр: Драма
    Год выпуска: 2014
    Продолжительность: 01:26:00
    Перевод: Одноголосый закадровый Kirill Ivanov
    Субтитры: Русские, SRT (мои)
    Режиссер: Хун Хау / Hong Khaou
    В ролях: Бэн Уишоу, Эндрю Льюн, Чен Пей-Пей, Наоми Кристи, Питер Боулс, Морвен Кристи и д.р.
    Описание: Китаец Кай и англичанин Ричард любили друг друга. Ради проживания с любимым Кай
    отправил свою мать Джюнн в приют для престарелых.
    Джюнн - вдовствующая камбоджийская китаянка. Прожив 29 лет в Англии, она так и не выучила язык.
    По нелепой случайности Кай погибает. Ричард понимает, что на него ложится забота о матери друга.
    Но найти общий язык оказывается очень сложно…

    Качество видео: BDRip-AVC (Lilting.2014.BluRay.1080p.AVC.DTS-HD.MA5.1-CHDBits)
    Формат видео: MKV
    Видео: x264; 720x404 (2,35:1); 24 fps; ~1660 kbps
    Аудио 1 : AC3; 48 kHz; 5.1 (Front: L C R, Side: L R, LFE); 384 kbps | VO
    Аудио 2 : AC3; 48 kHz; 5.1 (Front: L C R, Side: L R, LFE); 384 kbps | Original (Китайский, английский)

    СЕМПЛ

    MediaInfo

    Общее
    Полное имя : Lilting (2014) K_I (Rus).mkv
    Формат : Matroska
    Версия формата : Version 4 / Version 2
    Размер файла : 1,46 Гбайт
    Продолжительность : 1 ч. 26 м.
    Общий поток : 2428 Кбит/сек
    Название фильма : Lilting (2014) K_I
    Дата кодирования : UTC 2015-02-07 00:19:33
    Программа кодирования : mkvmerge v7.5.0 ('Glass Culture') 64bit built on Jan 4 2015 16:48:44
    Библиотека кодирования : libebml v1.3.1 + libmatroska v1.4.2
    Видео
    Идентификатор : 1
    Формат : AVC
    Формат/Информация : Advanced Video Codec
    Профиль формата : High@L3.1
    Параметр CABAC формата : Да
    Параметр ReFrames формата : 11 кадров
    Идентификатор кодека : V_MPEG4/ISO/AVC
    Продолжительность : 1 ч. 26 м.
    Битрейт : 1660 Кбит/сек
    Ширина : 720 пикселей
    Высота : 304 пикселя
    Соотношение сторон : 2,35:1
    Режим частоты кадров : Постоянный
    Частота кадров : 24,000 кадра/сек
    Цветовое пространство : YUV
    Субдискретизация насыщенности : 4:2:0
    Битовая глубина : 8 бит
    Тип развёртки : Прогрессивная
    Бит/(Пиксели*Кадры) : 0.316
    Размер потока : 992 Мбайт (66%)
    Библиотека кодирования : x264 core 142 r2479 dd79a61
    Настройки программы : cabac=1 / ref=11 / deblock=1:-1:-1 / analyse=0x3:0x133 / me=umh / subme=7 / psy=1 / psy_rd=1.00:0.10 / mixed_ref=1 / me_range=32 / chroma_me=1 / trellis=2 / 8x8dct=1 / cqm=0 / deadzone=21,11 / fast_pskip=0 / chroma_qp_offset=-3 / threads=6 / lookahead_threads=1 / sliced_threads=0 / nr=0 / decimate=1 / interlaced=0 / bluray_compat=0 / constrained_intra=0 / bframes=6 / b_pyramid=2 / b_adapt=2 / b_bias=0 / direct=3 / weightb=1 / open_gop=0 / weightp=2 / keyint=250 / keyint_min=23 / scenecut=40 / intra_refresh=0 / rc_lookahead=50 / rc=2pass / mbtree=1 / bitrate=1660 / ratetol=1.0 / qcomp=0.60 / qpmin=0 / qpmax=69 / qpstep=4 / cplxblur=20.0 / qblur=0.5 / ip_ratio=1.40 / aq=1:1.00
    Язык : English
    Default : Да
    Forced : Нет
    Аудио #1
    Идентификатор : 2
    Формат : AC-3
    Формат/Информация : Audio Coding 3
    Расширение режима : CM (complete main)
    Параметр Endianness формата : Big
    Идентификатор кодека : A_AC3
    Продолжительность : 1 ч. 26 м.
    Вид битрейта : Постоянный
    Битрейт : 384 Кбит/сек
    Каналы : 6 каналов
    Расположение каналов : Front: L C R, Side: L R, LFE
    Частота : 48,0 КГц
    Битовая глубина : 16 бит
    Метод сжатия : С потерями
    Размер потока : 236 Мбайт (16%)
    Язык : Russian
    Default : Да
    Forced : Нет
    Аудио #2
    Идентификатор : 3
    Формат : AC-3
    Формат/Информация : Audio Coding 3
    Расширение режима : CM (complete main)
    Параметр Endianness формата : Big
    Идентификатор кодека : A_AC3
    Продолжительность : 1 ч. 26 м.
    Вид битрейта : Постоянный
    Битрейт : 384 Кбит/сек
    Каналы : 6 каналов
    Расположение каналов : Front: L C R, Side: L R, LFE
    Частота : 48,0 КГц
    Битовая глубина : 16 бит
    Метод сжатия : С потерями
    Размер потока : 236 Мбайт (16%)
    Язык : English
    Default : Нет
    Forced : Нет
    Текст
    Идентификатор : 4
    Формат : UTF-8
    Идентификатор кодека : S_TEXT/UTF8
    Идентификатор кодека/Информация : UTF-8 Plain Text
    Язык : Russian
    Default : Нет
    Forced : Нет

    Скриншот с названием фильма

    Скриншоты


    Скачать .torrent

    Скачать торрент-файл бесплатно и на максимальной скорости!

    Как скачивать? · Что такое торрент? · Рейтинг и ограничения

    !ВНИМАНИЕ!
    Сайт не распространяет и не хранит электронные версии произведений, а занимается лишь лишь предоставлением доступа к создаваемому пользователями каталогу ссылок на торрент-файлы, которые содержат только списки хеш-сумм, убедительная просьба с жалобами обращаться напрямую к пользователю. Файлы для обмена на трекере предоставлены пользователями сайта, и администрация не несёт ответственности за их содержание. Просьба не заливать файлы, защищенные авторскими правами, а также файлы нелегального содержания!


    _________________
    [Профиль] [ЛС]
    Показать сообщения:    
    Ответить на тему

    Текущее время: Сегодня, в 08:01

    Часовой пояс: GMT + 2



    Вы не можете начинать темы
    Вы не можете отвечать на сообщения
    Вы не можете редактировать свои сообщения
    Вы не можете удалять свои сообщения
    Вы не можете голосовать в опросах
    Вы не можете прикреплять файлы к сообщениям
    Вы не можете скачивать файлы