BitTorrentTracker PerecTracker.org
BitTorrentTracker PerecTracker.org
    
Регистрация  ·  Вход
 
 · 
Забыли пароль?

  • Пресная вода / Sweetwater (Логан Миллер, Ной Миллер / Logan Miller, Noah Miller) [2013, США, триллер, вестерн, BDRip-AVC] AVO (Дольский) + Original (Eng) + Sub (Rus, Eng)

    Ответить на тему
     
    Автор Сообщение

    Light

    Создавать темы 31-Мар-2015 22:42

           

    [Цитировать]

    Пресная вода / Sweetwater
    Страна: США
    Жанр: триллер, вестерн
    Год выпуска: 2013
    Продолжительность: 01:31:17
    Перевод: Авторский (одноголосый закадровый), А. Дольский
    Cубтитры: русские (mig_88), английские
    Оригинальная аудиодорожка: английский
    Режиссеры: Логан Миллер, Ной Миллер / Logan Miller, Noah Miller
    В ролях: Дженьюэри Джонс, Эд Харрис, Джейсон Айзекс, Эдуардо Норьега, Стивен Рут, Джейсон Алдин, Вик Браудер, Люче Рэйнс, Дилан Кенин, Кит Мэривезер
    Описание: Действие картины будет разворачиваться в 1886 году в Нью-Мексико. Лента расскажет о молодой вдове, которая рискует всем, чтобы отомстить жестокому владельцу овцеводческой фермы за убийство своего мужа

    Исходник: Пресная вода / Sweetwater 2013 BDRemux 1080i @ Kinozal
    Качество видео: BDRip-AVC | | sample
    Формат видео: MKV
    Видео кодек: x264
    Видео: AVC 1152x480 (2.40:1), 25 fps, ~4500 Kbps, 0.33 bit/pixel
    Аудио #1: Russian AC3 6ch 48kHz 448Kbps | AVO Дольский
    Аудио #2: English AC3 6ch 48kHz 448Kbps | Original
    Формат субтитров: softsub (SRT)
    Главы: есть

    MediaInfo | x264

    x264

    --[Information] [18.03.2015 16:54:10] x264 [info]: frame I:993 Avg QP:15.72 size:100570
    --[Information] [18.03.2015 16:54:10] x264 [info]: frame P:25765 Avg QP:18.63 size: 44096
    --[Information] [18.03.2015 16:54:10] x264 [info]: frame B:110162 Avg QP:19.20 size: 16680
    --[Information] [18.03.2015 16:54:10] x264 [info]: consecutive B-frames: 1.1% 0.8% 5.1% 11.8% 14.4% 55.6% 4.4% 1.3% 1.5% 1.0% 0.2% 0.1% 0.2% 1.8% 0.6%
    --[Information] [18.03.2015 16:54:10] x264 [info]: kb/s:4489.52
    General
    Complete name : E:\...\Sweetwater.2013.BDRip.x264.DD5.1.Rus.AVO.Eng-E76.mkv
    Format : Matroska
    Format version : Version 2
    File size : 3.43 GiB
    Duration : 1h 31mn
    Overall bit rate : 5 387 Kbps
    Movie name : Sweetwater.2013.BDRip.x264.DD5.1.Rus.AVO.Eng-E76
    Encoded date : UTC 2015-03-31 15:40:47
    Writing application : mkvmerge v7.0.0 ('Where We Going') 64bit built on Jun 9 2014 15:16:27
    Writing library : libebml v1.3.0 + libmatroska v1.4.1
    Video
    ID : 1
    Format : AVC
    Format/Info : Advanced Video Codec
    Format profile : High@L4.1
    Format settings, CABAC : Yes
    Format settings, ReFrames : 12 frames
    Codec ID : V_MPEG4/ISO/AVC
    Bit rate : 4 490 Kbps
    Width : 1 152 pixels
    Height : 480 pixels
    Display aspect ratio : 2.40:1
    Frame rate mode : Constant
    Original frame rate : 25.000 fps
    Color space : YUV
    Chroma subsampling : 4:2:0
    Bit depth : 8 bits
    Scan type : Progressive
    Bits/(Pixel*Frame) : 0.325
    Title : Sweetwater (2013)
    Writing library : x264 core 144 r2525kMod 40bb568
    Encoding settings : cabac=1 / ref=12 / deblock=1:-3:-3 / analyse=0x3:0x113 / me=umh / subme=11 / psy=1 / fade_compensate=0.00 / psy_rd=1.00:0.15 / mixed_ref=1 / me_range=48 / chroma_me=1 / trellis=2 / 8x8dct=1 / cqm=0 / deadzone=21,11 / fast_pskip=0 / chroma_qp_offset=-3 / threads=6 / lookahead_threads=1 / sliced_threads=0 / nr=0 / decimate=0 / interlaced=0 / bluray_compat=0 / constrained_intra=0 / fgo=0 / bframes=14 / b_pyramid=2 / b_adapt=2 / b_bias=0 / direct=3 / weightb=1 / open_gop=0 / weightp=2 / keyint=250 / keyint_min=25 / scenecut=40 / intra_refresh=0 / rc_lookahead=0 / rc=2pass / mbtree=0 / bitrate=4490 / ratetol=1.0 / qcomp=0.65 / qpmin=0 / qpmax=69 / qpstep=4 / cplxblur=20.0 / qblur=0.5 / vbv_maxrate=62500 / vbv_bufsize=78125 / nal_hrd=none / filler=0 / ip_ratio=1.40 / pb_ratio=1.30 / aq=3:1.00 / zones=131085,136919,q=30
    Language : English
    Default : Yes
    Forced : No
    Matrix coefficients : BT.709
    Audio #1
    ID : 2
    Format : AC-3
    Format/Info : Audio Coding 3
    Mode extension : CM (complete main)
    Format settings, Endianness : Big
    Codec ID : A_AC3
    Duration : 1h 31mn
    Bit rate mode : Constant
    Bit rate : 448 Kbps
    Channel(s) : 6 channels
    Channel positions : Front: L C R, Side: L R, LFE
    Sampling rate : 48.0 KHz
    Bit depth : 16 bits
    Compression mode : Lossy
    Stream size : 292 MiB (8%)
    Title : AVO Dolsky
    Language : Russian
    Default : Yes
    Forced : No
    Audio #2
    ID : 3
    Format : AC-3
    Format/Info : Audio Coding 3
    Mode extension : CM (complete main)
    Format settings, Endianness : Big
    Codec ID : A_AC3
    Duration : 1h 31mn
    Bit rate mode : Constant
    Bit rate : 448 Kbps
    Channel(s) : 6 channels
    Channel positions : Front: L C R, Side: L R, LFE
    Sampling rate : 48.0 KHz
    Bit depth : 16 bits
    Compression mode : Lossy
    Stream size : 292 MiB (8%)
    Title : Original
    Language : English
    Default : No
    Forced : No
    Text #1
    ID : 4
    Format : UTF-8
    Codec ID : S_TEXT/UTF8
    Codec ID/Info : UTF-8 Plain Text
    Language : Russian
    Default : No
    Forced : No
    Text #2
    ID : 5
    Format : UTF-8
    Codec ID : S_TEXT/UTF8
    Codec ID/Info : UTF-8 Plain Text
    Language : English
    Default : No
    Forced : No
    Menu
    00:00:00.000 : en:00:00:00.000
    00:06:48.360 : en:00:06:48.360
    ...
    01:24:49.760 : en:01:24:49.760

    Скриншоты и сравнения



    source vs E76 vs CRiSC (GER)


    => Новые релизы в AVC | | Заказ рипов в AVC <=
    Скачать .torrent

    Скачать торрент-файл бесплатно и на максимальной скорости!

    Как скачивать? · Что такое торрент? · Рейтинг и ограничения

    !ВНИМАНИЕ!
    Сайт не распространяет и не хранит электронные версии произведений, а занимается лишь лишь предоставлением доступа к создаваемому пользователями каталогу ссылок на торрент-файлы, которые содержат только списки хеш-сумм, убедительная просьба с жалобами обращаться напрямую к пользователю. Файлы для обмена на трекере предоставлены пользователями сайта, и администрация не несёт ответственности за их содержание. Просьба не заливать файлы, защищенные авторскими правами, а также файлы нелегального содержания!


    _________________
    [Профиль] [ЛС]
    Показать сообщения:    
    Ответить на тему

    Текущее время: Сегодня, в 10:38

    Часовой пояс: GMT + 2



    Вы не можете начинать темы
    Вы не можете отвечать на сообщения
    Вы не можете редактировать свои сообщения
    Вы не можете удалять свои сообщения
    Вы не можете голосовать в опросах
    Вы не можете прикреплять файлы к сообщениям
    Вы не можете скачивать файлы