BitTorrentTracker PerecTracker.org
BitTorrentTracker PerecTracker.org
    
Регистрация  ·  Вход
 
 · 
Забыли пароль?

  • Противостояние (5 серий) (Семён Аранович) [1985, Детектив, SATRip]

    Ответить на тему
     
    Автор Сообщение

    Light

    Создавать темы 31-Мар-2015 14:24

           

    [Цитировать]

    Противостояние (5 серий)
    Жанр: Детектив
    Страна: СССР
    Студия: Ленфильм (по заказу Комитета по радиовещанию и телевидению Гостелерадио СССР)
    Год выпуска: 1985
    Продолжительность: 06:11:07 = 01:03:39 + (00:55:44 + 00:58:36) + 01:05:48 + 01:03:10 + 01:04:12
    Режиссёр: Семён Аранович
    В ролях: Олег Басилашвили, Андрей Болтнев, Наталья Сайко, Юрий Кузнецов, Мурман Джинория, Виктор Гоголев, В.Парменов, Э.Дружинина, Александр Казаков, Ольга Семенова (II), Александр Филиппенко, Вера Быкова-Пижель, Ольга Самошина, Олег Пальмов, Валерий Филонов, Аля Никулина, Елизавета Никищихина, Талгат Нигматулин, Галина Макарова, Котэ (Константин) Махарадзе, Юрий Ступаков, Сергей Бехтерев, Эльвира Колотухина, Владимир Головин, Витаутас Паукште, Станислав Садальский, Николай Ферапонтов, Тамара Шемпель, Арцрум Манукян, Мария Берггольц, Наталья Лабурцева, В.Старостин, Татьяна Шаркова и другие
    Описание: По одноимённому произведения Юлиана Семёнова.
    Сюжет протекает в двух временных линиях в 1980-е годы и в 1940-е в СССР. Совершено несколько тяжких преступлений и расследование выявляет почерк преступника, которого удалось идентифицировать, как бывшего приспешника фашистов, который в 1941 году из рядов Советской Армии перешёл на сторону врага и прошёл спецподготовку в Германии. Полковник Костенко преследует предателя, постепенно развязывая сложный клубок преступлений …
    Доп. информация: Релиз:
    Автор рипа: pmv
    Большое спасибо за:
    - Исходник DVB - MIFAL
    (Запись потока *.ts со спутника с ТК «Россия-1»)
    IMDb = 7,8/10 from 125 users -
    Кинопоиск = 8.374 (1739) -
    * В данной записи в 3-й серии на 24 минуте сцена длится на 2 с половиной минуты дольше, чем на DVD.
    * В 3-й серии с 32 мин 41 сек по 33 мин 03 сек происходит на короткое время появление помех в исходнике в виде артефактов (рассыпание части кадров на квадратики). Длится это недолго, непостоянно около 20 сек и на качество просмотра не влияет.

    Размер всех серий: 4.476 GB = 746 Mb х 6
    Продолжительность: 06:11:07 = 01:03:39 + (00:55:44 + 00:58:36) + 01:05:48 + 01:03:10 + 01:04:12
    Качество видео: SATRip
    Формат видео: AVI
    Видео: 720x544 (1.32:1), 25 fps, XviD build 73 ~1501 kbps avg, 0.15 bit/pixel
    Аудио: 48 kHz, MPEG Layer 3, 2 ch, ~128.00 kbps avg

    Сэмпл

    1 серия - http://multi-up.com/1041303
    2 серия, 1 часть - http://multi-up.com/1041304
    2 серия, 2 часть - http://multi-up.com/1041305
    3 серия - http://multi-up.com/1041306
    4 серия - http://multi-up.com/1041307
    5 серия - http://multi-up.com/1041308

    MediaInfo

    1 серия
    General
    Complete name : D:\torrents\Противостояние (1985, 1 сер).avi
    Format : AVI
    Format/Info : Audio Video Interleave
    File size : 746 MiB
    Duration : 1h 3mn
    Overall bit rate : 1 639 Kbps
    Writing application : VirtualDubMod 1.5.10.3 | www.virtualdub-fr.org || (build 2550/release)
    Writing library : VirtualDubMod build 2550/release
    Video
    ID : 0
    Format : MPEG-4 Visual
    Format profile : Advanced Simple@L5
    Format settings, BVOP : Yes
    Format settings, QPel : No
    Format settings, GMC : No warppoints
    Format settings, Matrix : Default (H.263)
    Codec ID : XVID
    Codec ID/Hint : XviD
    Duration : 1h 3mn
    Bit rate : 1 502 Kbps
    Width : 720 pixels
    Height : 544 pixels
    Display aspect ratio : 4:3
    Frame rate : 25.000 fps
    Resolution : 8 bits
    Colorimetry : 4:2:0
    Scan type : Progressive
    Bits/(Pixel*Frame) : 0.153
    Stream size : 684 MiB (92%)
    Writing library : XviD 73
    Audio
    ID : 1
    Format : MPEG Audio
    Format version : Version 1
    Format profile : Layer 3
    Codec ID : 55
    Codec ID/Hint : MP3
    Duration : 1h 3mn
    Bit rate mode : Constant
    Bit rate : 128 Kbps
    Channel(s) : 2 channels
    Sampling rate : 48.0 KHz
    Stream size : 58.3 MiB (8%)
    Alignment : Aligned on interleaves
    Interleave, duration : 40 ms (1.00 video frame)
    Interleave, preload duration : 504 ms
    2 серия, 1 часть
    General
    Complete name : D:\torrents\Противостояние (1985, 2-1 сер).avi
    Format : AVI
    Format/Info : Audio Video Interleave
    File size : 746 MiB
    Duration : 55mn 43s
    Overall bit rate : 1 870 Kbps
    Writing application : VirtualDubMod 1.5.10.3 | www.virtualdub-fr.org || (build 2550/release)
    Writing library : VirtualDubMod build 2550/release
    Video
    ID : 0
    Format : MPEG-4 Visual
    Format profile : Advanced Simple@L5
    Format settings, BVOP : Yes
    Format settings, QPel : No
    Format settings, GMC : No warppoints
    Format settings, Matrix : Default (H.263)
    Codec ID : XVID
    Codec ID/Hint : XviD
    Duration : 55mn 43s
    Bit rate : 1 733 Kbps
    Width : 720 pixels
    Height : 544 pixels
    Display aspect ratio : 4:3
    Frame rate : 25.000 fps
    Resolution : 8 bits
    Colorimetry : 4:2:0
    Scan type : Progressive
    Bits/(Pixel*Frame) : 0.177
    Stream size : 691 MiB (93%)
    Writing library : XviD 73
    Audio
    ID : 1
    Format : MPEG Audio
    Format version : Version 1
    Format profile : Layer 3
    Codec ID : 55
    Codec ID/Hint : MP3
    Duration : 55mn 43s
    Bit rate mode : Constant
    Bit rate : 128 Kbps
    Channel(s) : 2 channels
    Sampling rate : 48.0 KHz
    Stream size : 51.0 MiB (7%)
    Alignment : Aligned on interleaves
    Interleave, duration : 40 ms (1.00 video frame)
    Interleave, preload duration : 504 ms
    2 серия, 2 часть
    General
    Complete name : D:\torrents\Противостояние (1985, 2-2 сер).avi
    Format : AVI
    Format/Info : Audio Video Interleave
    File size : 746 MiB
    Duration : 58mn 36s
    Overall bit rate : 1 779 Kbps
    Writing application : VirtualDubMod 1.5.10.3 | www.virtualdub-fr.org || (build 2550/release)
    Writing library : VirtualDubMod build 2550/release
    Video
    ID : 0
    Format : MPEG-4 Visual
    Format profile : Advanced Simple@L5
    Format settings, BVOP : Yes
    Format settings, QPel : No
    Format settings, GMC : No warppoints
    Format settings, Matrix : Default (H.263)
    Codec ID : XVID
    Codec ID/Hint : XviD
    Duration : 58mn 36s
    Bit rate : 1 642 Kbps
    Width : 720 pixels
    Height : 544 pixels
    Display aspect ratio : 4:3
    Frame rate : 25.000 fps
    Resolution : 8 bits
    Colorimetry : 4:2:0
    Scan type : Progressive
    Bits/(Pixel*Frame) : 0.168
    Stream size : 688 MiB (92%)
    Writing library : XviD 73
    Audio
    ID : 1
    Format : MPEG Audio
    Format version : Version 1
    Format profile : Layer 3
    Codec ID : 55
    Codec ID/Hint : MP3
    Duration : 58mn 36s
    Bit rate mode : Constant
    Bit rate : 128 Kbps
    Channel(s) : 2 channels
    Sampling rate : 48.0 KHz
    Stream size : 53.7 MiB (7%)
    Alignment : Aligned on interleaves
    Interleave, duration : 40 ms (1.00 video frame)
    Interleave, preload duration : 504 ms
    3 серия
    General
    Complete name : D:\torrents\Противостояние (1985, 3 сер).avi
    Format : AVI
    Format/Info : Audio Video Interleave
    File size : 746 MiB
    Duration : 1h 5mn
    Overall bit rate : 1 586 Kbps
    Writing application : VirtualDubMod 1.5.10.3 | www.virtualdub-fr.org || (build 2550/release)
    Writing library : VirtualDubMod build 2550/release
    Video
    ID : 0
    Format : MPEG-4 Visual
    Format profile : Advanced Simple@L5
    Format settings, BVOP : Yes
    Format settings, QPel : No
    Format settings, GMC : No warppoints
    Format settings, Matrix : Default (H.263)
    Codec ID : XVID
    Codec ID/Hint : XviD
    Duration : 1h 5mn
    Bit rate : 1 448 Kbps
    Width : 720 pixels
    Height : 544 pixels
    Display aspect ratio : 4:3
    Frame rate : 25.000 fps
    Resolution : 8 bits
    Colorimetry : 4:2:0
    Scan type : Progressive
    Bits/(Pixel*Frame) : 0.148
    Stream size : 681 MiB (91%)
    Writing library : XviD 73
    Audio
    ID : 1
    Format : MPEG Audio
    Format version : Version 1
    Format profile : Layer 3
    Codec ID : 55
    Codec ID/Hint : MP3
    Duration : 1h 5mn
    Bit rate mode : Constant
    Bit rate : 128 Kbps
    Channel(s) : 2 channels
    Sampling rate : 48.0 KHz
    Stream size : 60.2 MiB (8%)
    Alignment : Aligned on interleaves
    Interleave, duration : 40 ms (1.00 video frame)
    Interleave, preload duration : 504 ms
    4 серия
    General
    Complete name : D:\torrents\Противостояние (1985, 4 сер).avi
    Format : AVI
    Format/Info : Audio Video Interleave
    File size : 746 MiB
    Duration : 1h 3mn
    Overall bit rate : 1 652 Kbps
    Writing application : VirtualDubMod 1.5.10.3 | www.virtualdub-fr.org || (build 2550/release)
    Writing library : VirtualDubMod build 2550/release
    Video
    ID : 0
    Format : MPEG-4 Visual
    Format profile : Advanced Simple@L5
    Format settings, BVOP : Yes
    Format settings, QPel : No
    Format settings, GMC : No warppoints
    Format settings, Matrix : Default (H.263)
    Codec ID : XVID
    Codec ID/Hint : XviD
    Duration : 1h 3mn
    Bit rate : 1 514 Kbps
    Width : 720 pixels
    Height : 544 pixels
    Display aspect ratio : 4:3
    Frame rate : 25.000 fps
    Resolution : 8 bits
    Colorimetry : 4:2:0
    Scan type : Progressive
    Bits/(Pixel*Frame) : 0.155
    Stream size : 684 MiB (92%)
    Writing library : XviD 73
    Audio
    ID : 1
    Format : MPEG Audio
    Format version : Version 1
    Format profile : Layer 3
    Codec ID : 55
    Codec ID/Hint : MP3
    Duration : 1h 3mn
    Bit rate mode : Constant
    Bit rate : 128 Kbps
    Channel(s) : 2 channels
    Sampling rate : 48.0 KHz
    Stream size : 57.8 MiB (8%)
    Alignment : Aligned on interleaves
    Interleave, duration : 40 ms (1.00 video frame)
    Interleave, preload duration : 504 ms
    5 серия
    General
    Complete name : D:\torrents\Противостояние (1985, 5 сер).avi
    Format : AVI
    Format/Info : Audio Video Interleave
    File size : 746 MiB
    Duration : 1h 4mn
    Overall bit rate : 1 625 Kbps
    Writing application : VirtualDubMod 1.5.10.3 | www.virtualdub-fr.org || (build 2550/release)
    Writing library : VirtualDubMod build 2550/release
    Video
    ID : 0
    Format : MPEG-4 Visual
    Format profile : Advanced Simple@L5
    Format settings, BVOP : Yes
    Format settings, QPel : No
    Format settings, GMC : No warppoints
    Format settings, Matrix : Default (H.263)
    Codec ID : XVID
    Codec ID/Hint : XviD
    Duration : 1h 4mn
    Bit rate : 1 487 Kbps
    Width : 720 pixels
    Height : 544 pixels
    Display aspect ratio : 4:3
    Frame rate : 25.000 fps
    Resolution : 8 bits
    Colorimetry : 4:2:0
    Scan type : Progressive
    Bits/(Pixel*Frame) : 0.152
    Stream size : 683 MiB (92%)
    Writing library : XviD 73
    Audio
    ID : 1
    Format : MPEG Audio
    Format version : Version 1
    Format profile : Layer 3
    Codec ID : 55
    Codec ID/Hint : MP3
    Duration : 1h 4mn
    Bit rate mode : Constant
    Bit rate : 128 Kbps
    Channel(s) : 2 channels
    Sampling rate : 48.0 KHz
    Stream size : 58.8 MiB (8%)
    Alignment : Aligned on interleaves
    Interleave, duration : 40 ms (1.00 video frame)
    Interleave, preload duration : 504 ms

    Скриншот с названием фильма

    Скриншоты

    1 серия

    2 серия, 1 часть

    2 серия, 2 часть

    3 серия

    4 серия

    5 серия
    Скачать .torrent

    Скачать торрент-файл бесплатно и на максимальной скорости!

    Как скачивать? · Что такое торрент? · Рейтинг и ограничения

    !ВНИМАНИЕ!
    Сайт не распространяет и не хранит электронные версии произведений, а занимается лишь лишь предоставлением доступа к создаваемому пользователями каталогу ссылок на торрент-файлы, которые содержат только списки хеш-сумм, убедительная просьба с жалобами обращаться напрямую к пользователю. Файлы для обмена на трекере предоставлены пользователями сайта, и администрация не несёт ответственности за их содержание. Просьба не заливать файлы, защищенные авторскими правами, а также файлы нелегального содержания!


    _________________
    [Профиль] [ЛС]
    Показать сообщения:    
    Ответить на тему

    Текущее время: Сегодня, в 14:42

    Часовой пояс: GMT + 2



    Вы не можете начинать темы
    Вы не можете отвечать на сообщения
    Вы не можете редактировать свои сообщения
    Вы не можете удалять свои сообщения
    Вы не можете голосовать в опросах
    Вы не можете прикреплять файлы к сообщениям
    Вы не можете скачивать файлы