BitTorrentTracker PerecTracker.org
BitTorrentTracker PerecTracker.org
    
Регистрация  ·  Вход
 
 · 
Забыли пароль?

  • Последняя дорога (Леонид Менакер) [1986 г., драма, исторический, биографический, SATRip]

    Ответить на тему
     
    Автор Сообщение

    Light

    Создавать темы 31-Мар-2015 10:12

           

    [Цитировать]

    Последняя дорогаГод выпуска: 1986.
    Жанр: драма, исторический, биографический.
    Продолжительность: 01:33:28.
    Режиссер: Леонид Менакер.
    В ролях:
    Александр Калягин, Вадим Медведев, Ирина Купченко, Елена Караджова, Анна Каменкова, Иннокентий Смоктуновский, Гедиминас Сторпирштис, Сергей Сазонтьев, Вячеслав Езепов, Андрей Мягков, Альберт Филозов, Иван Краско, Всеволод Кузнецов, Сергей Жигунов, Михаил Глузский, Александр Романцов, Виктор Шульгин, Ольгерт Кродерс, Римма Маркова.
    Описание:
    Драматическая коллизия, приведшая к гибели Пушкина, перевернула судьбы близких ему людей. Кто виноват в случившемся? За что дрался на дуэли лучший русский поэт? Картина реконструирует события до и после пушкинской дуэли...
    Доп. информация:
    Страна: СССР .
    Киностудия: Ленфильм.
    Премьера: апрель 1987 года.
    Авторы сценария: Яков Гордин, Леонид Менакер.
    Оператор: Владимир Ковзель.
    Композитор: Андрей Петров.
    Художники: Марксэн Гаухман-Свердлов, Михаил Щеглов, Владислав Орлов.

    Еще постеры

    Релиз
    Рип с этой раздачи.
    Большое спасибо трус за предоставленый материал для рипа!!!

    Качество: SATRip
    Формат: AVI
    Видео: 688x528 (1.30:1), 25 fps, XviD build 73 ~2034 kbps avg, 0.22 bit/pixel
    Аудио: 48 kHz, AC3 Dolby Digital, 1/0 (C) ch, ~192 kbps

    Отчет MI

    General
    Complete name : Poslednyaya.doroga.1986.XviD.SATRip.fenixclub_1.45.avi
    Format : AVI
    Format/Info : Audio Video Interleave
    File size : 1.46 GiB
    Duration : 1h 33mn
    Overall bit rate : 2 237 Kbps
    Writing application : VirtualDubMod 1.5.10.3 | www.virtualdub-fr.org || (build 2550/release)
    Writing library : VirtualDubMod build 2550/release
    Video
    ID : 0
    Format : MPEG-4 Visual
    Format profile : Advanced Simple@L5
    Format settings, BVOP : 1
    Format settings, QPel : No
    Format settings, GMC : No warppoints
    Format settings, Matrix : Custom
    Codec ID : XVID
    Codec ID/Hint : XviD
    Duration : 1h 33mn
    Bit rate : 2 035 Kbps
    Width : 688 pixels
    Height : 528 pixels
    Display aspect ratio : 4:3
    Frame rate : 25.000 fps
    Color space : YUV
    Chroma subsampling : 4:2:0
    Bit depth : 8 bits
    Scan type : Progressive
    Compression mode : Lossy
    Bits/(Pixel*Frame) : 0.224
    Stream size : 1.33 GiB (91%)
    Writing library : XviD 73
    Audio
    ID : 1
    Format : AC-3
    Format/Info : Audio Coding 3
    Mode extension : CM (complete main)
    Format settings, Endianness : Big
    Codec ID : 2000
    Duration : 1h 33mn
    Bit rate mode : Constant
    Bit rate : 192 Kbps
    Channel(s) : 1 channel
    Channel positions : Front: C
    Sampling rate : 48.0 KHz
    Bit depth : 16 bits
    Compression mode : Lossy
    Stream size : 128 MiB (9%)
    Alignment : Split accross interleaves
    Interleave, duration : 40 ms (1.00 video frame)
    Interleave, preload duratio : 500 ms
    Скриншоты

    Альтернативный хост

    Скачать .torrent

    Скачать торрент-файл бесплатно и на максимальной скорости!

    Как скачивать? · Что такое торрент? · Рейтинг и ограничения

    !ВНИМАНИЕ!
    Сайт не распространяет и не хранит электронные версии произведений, а занимается лишь лишь предоставлением доступа к создаваемому пользователями каталогу ссылок на торрент-файлы, которые содержат только списки хеш-сумм, убедительная просьба с жалобами обращаться напрямую к пользователю. Файлы для обмена на трекере предоставлены пользователями сайта, и администрация не несёт ответственности за их содержание. Просьба не заливать файлы, защищенные авторскими правами, а также файлы нелегального содержания!


    _________________
    [Профиль] [ЛС]
    Показать сообщения:    
    Ответить на тему

    Текущее время: Сегодня, в 02:39

    Часовой пояс: GMT + 2



    Вы не можете начинать темы
    Вы не можете отвечать на сообщения
    Вы не можете редактировать свои сообщения
    Вы не можете удалять свои сообщения
    Вы не можете голосовать в опросах
    Вы не можете прикреплять файлы к сообщениям
    Вы не можете скачивать файлы