Register  ·  Log in
Forgot password?

  • Вселенная Стивена Хокинга / The Theory of Everything (Джеймс Марш / James Marsh) [2014, Великобритания, драма, мелодрама, биография, HDRip] Dub

    Reply to topic
    Author Message


    Post 31-Mar-2015 11:12



    Вселенная Стивена Хокинга / The Theory of Everything
    Страна: Великобритания
    Жанр: драма, мелодрама, биография
    Год выпуска: 2014
    Продолжительность: 02:03:25
    Перевод: Профессиональный (дублированный) [лицензия, Blu-ray CEE]
    Cубтитры: нет
    Режиссер: Джеймс Марш / James Marsh
    В ролях: Эдди Редмэйн, Фелисити Джонс, Чарли Кокс, Эмили Уотсон, Том Прайор, Софи Перри, Finlay Wright-Stephens, Гарри Ллойд, Элис Орр-Юинг, Дэвид Тьюлис
    Описание: История отношений между известным физиком Стивеном Хокингом и его женой.
    Качество видео: HDRip [Рип с BDRip 1080p]
    Формат видео: AVI
    Видео: 720x304 (2.37:1), 23.976 fps, XviD build 73 ~1290 kbps avg, 0.25 bit/pixel
    Аудио: 48 kHz, AC3 Dolby Digital, 3/2 (L,C,R,l,r) + LFE ch, ~384 kbps


    Complete name : D:\The Theory of Everythin.2014.HDRip.avi
    Format : AVI
    Format/Info : Audio Video Interleave
    File size : 1.46 GiB
    Duration : 2h 3mn
    Overall bit rate : 1 689 Kbps
    Writing application : VirtualDubMod (build 2540/release)
    Writing library : VirtualDubMod build 2540/release
    ID : 0
    Format : MPEG-4 Visual
    Format profile : Advanced Simple@L5
    Format settings, BVOP : 2
    Format settings, QPel : No
    Format settings, GMC : No warppoints
    Format settings, Matrix : Default (MPEG)
    Codec ID : XVID
    Codec ID/Hint : XviD
    Duration : 2h 3mn
    Bit rate : 1 296 Kbps
    Width : 720 pixels
    Height : 304 pixels
    Display aspect ratio : 2.35:1
    Frame rate : 23.976 fps
    Color space : YUV
    Chroma subsampling : 4:2:0
    Bit depth : 8 bits
    Scan type : Progressive
    Compression mode : Lossy
    Bits/(Pixel*Frame) : 0.247
    Stream size : 1.12 GiB (77%)
    Writing library : XviD 1.2.1 (UTC 2008-12-04)
    ID : 1
    Format : AC-3
    Format/Info : Audio Coding 3
    Mode extension : CM (complete main)
    Format settings, Endianness : Big
    Codec ID : 2000
    Duration : 2h 3mn
    Bit rate mode : Constant
    Bit rate : 384 Kbps
    Channel(s) : 2 channels
    Channel positions : Front: L R
    Sampling rate : 48.0 KHz
    Bit depth : 16 bits
    Compression mode : Lossy
    Stream size : 339 MiB (23%)
    Alignment : Split accross interleaves
    Interleave, duration : 42 ms (1.00 video frame)
    Interleave, preload duration : 500 ms

    Скриншот c названием фильма


    Download .torrent

    Download free and at maximum speed!

    How to Download? · What is a torrent? · Ratings and Limitations

    The site does not extend and does not store electronic(digital) versions of products, and only gives access to a reference catalogue created by users on torrent-files which contain only lists of the hash-sums, the earnest entreaty, with complaints(abuse) to access directly to the user. Files for an exchange on tracker are given by users of a site, and the administration does not bear the responsibility for their maintenance. The request to not fill in the files protected by copyrights, and also files of the illegal maintenance!

    [Profile] [PM]
    Display posts from previous:    
    Reply to topic

    The time now is: Today 00:33

    All times are GMT + 3 Hours

    You cannot post new topics in this forum
    You cannot reply to topics in this forum
    You cannot edit your posts in this forum
    You cannot delete your posts in this forum
    You cannot vote in polls in this forum
    You cannot attach files in this forum
    You cannot download files in this forum