BitTorrentTracker PerecTracker.org
BitTorrentTracker PerecTracker.org
    
Регистрация  ·  Вход
 
 · 
Забыли пароль?

  • Я подарю тебе любовь (Игорь Кечаев) [2014, Россия, мелодрама, HDTV 1080i] + Original Rus

    Ответить на тему
     
    Автор Сообщение

    rechyn

    Создавать темы 31-Мар-2015 01:48

           

    [Цитировать]

    Я подарю тебе любовь
    Страна: Россия
    Студия: ВайТ Медиа
    Жанр: мелодрама
    Год выпуска: 2014
    Продолжительность: 01:30:05
    Перевод: Не требуется
    Cубтитры: нет
    Оригинальная аудиодорожка: русский
    Режиссер: Игорь Кечаев
    В ролях: Елена Дудина, Александр Пашков, Тамара Сёмина, Олеся Бойко, Глафира Козулина, Иван Бровин, Степан Бекетов, Виктор Выбриенко, Светлана Письмиченко, Екатерина Толубеева
    Описание:
    Борис призван на срочную службу в "горячую точку". Дома его ждет невеста Лариса, но вскоре приходит письмо, в котором сообщается, что он погиб. Бориса привозят хоронить на родину в цинковом гробу. Друг Бориса Николай, влюбленный в Ларису, начинает настойчиво ухаживать за ней и, наконец, делает предложение. Девушка принимает предложение, осознавая, что не любит Николая. Накануне их свадьбы неожиданно возвращается Борис. Их чувства друг к другу не остыли, но узнав, что возлюбленная собирается замуж, молодой человек снова исчезает…

    Сэмпл: http://multi-up.com/1040864
    Тип релиза: HDTV 1080i
    Контейнер: MKV
    Видео: AVC, 1920x1080, (16:9), 25 fps, 7.3 Mbps
    Аудио: Русский, MP2, 48 kHz, 2 ch, 192 kbps

    MediaInfo

    General
    Unique ID : 198148144123782183907660562148035758057 (0x9511F1C5762BC210806C67CB936987E9)
    Complete name : C:\Я подарю тебе любовь_2014_HDTV 1080i_RU.mkv
    Format : Matroska
    Format version : Version 4 / Version 2
    File size : 4.82 GiB
    Duration : 1h 30mn
    Overall bit rate : 7 659 Kbps
    Encoded date : UTC 2015-03-29 08:02:50
    Writing application : mkvmerge v7.8.0 ('River Man') 64bit built on Mar 27 2015 16:31:37
    Writing library : libebml v1.3.1 + libmatroska v1.4.2
    DURATION : 01:30:05.016000000
    NUMBER_OF_FRAMES : 225209
    NUMBER_OF_BYTES : 129720384
    _STATISTICS_WRITING_APP : mkvmerge v7.8.0 ('River Man') 64bit built on Mar 27 2015 16:31:37
    _STATISTICS_WRITING_DATE_UTC : 2015-03-29 08:02:50
    _STATISTICS_TAGS : BPS DURATION NUMBER_OF_FRAMES NUMBER_OF_BYTES
    Video
    ID : 1
    Format : AVC
    Format/Info : Advanced Video Codec
    Format profile : High@L4.0
    Format settings, CABAC : Yes
    Format settings, ReFrames : 4 frames
    Codec ID : V_MPEG4/ISO/AVC
    Duration : 1h 30mn
    Bit rate : 7 315 Kbps
    Width : 1 920 pixels
    Height : 1 080 pixels
    Display aspect ratio : 16:9
    Frame rate mode : Constant
    Frame rate : 25.000 fps
    Standard : Component
    Color space : YUV
    Chroma subsampling : 4:2:0
    Bit depth : 8 bits
    Scan type : Interlaced
    Scan order : Top Field First
    Bits/(Pixel*Frame) : 0.141
    Stream size : 4.60 GiB (96%)
    Default : Yes
    Forced : No
    Color primaries : BT.709
    Transfer characteristics : BT.709
    Matrix coefficients : BT.709
    Color range : Limited
    Audio
    ID : 2
    Format : MPEG Audio
    Format version : Version 1
    Format profile : Layer 2
    Codec ID : A_MPEG/L2
    Codec ID/Hint : MP2
    Duration : 1h 30mn
    Bit rate mode : Constant
    Bit rate : 192 Kbps
    Channel(s) : 2 channels
    Sampling rate : 48.0 KHz
    Compression mode : Lossy
    Stream size : 124 MiB (3%)
    Language : English
    Default : Yes
    Forced : No

    Скриншоты

    Скачать .torrent

    Скачать торрент-файл бесплатно и на максимальной скорости!

    Как скачивать? · Что такое торрент? · Рейтинг и ограничения

    !ВНИМАНИЕ!
    Сайт не распространяет и не хранит электронные версии произведений, а занимается лишь лишь предоставлением доступа к создаваемому пользователями каталогу ссылок на торрент-файлы, которые содержат только списки хеш-сумм, убедительная просьба с жалобами обращаться напрямую к пользователю. Файлы для обмена на трекере предоставлены пользователями сайта, и администрация не несёт ответственности за их содержание. Просьба не заливать файлы, защищенные авторскими правами, а также файлы нелегального содержания!


    _________________
    [Профиль] [ЛС]
    Показать сообщения:    
    Ответить на тему

    Текущее время: Сегодня, в 03:27

    Часовой пояс: GMT + 2



    Вы не можете начинать темы
    Вы не можете отвечать на сообщения
    Вы не можете редактировать свои сообщения
    Вы не можете удалять свои сообщения
    Вы не можете голосовать в опросах
    Вы не можете прикреплять файлы к сообщениям
    Вы не можете скачивать файлы