Register  ·  Log in
Forgot password?

  • Тайна тёмной комнаты (Ольга Беляева) [2014, Россия, Приключения, детский, DVDRip]

    Reply to topic
    Author Message


    Post 30-Mar-2015 10:00



    Тайна тёмной комнаты-Страна: Россия
    Жанр: Приключения, детский
    Год выпуска: 2014
    Продолжительность: 01:16:27
    Перевод: Не требуется
    Cубтитры: нет-Режиссер: Ольга Беляева
    В ролях: Сергей Никоненко, Виктор Сухоруков, Галина Польских, Ирина Скобцева, Константин Крюков, Иван Агапов, Екатерина Воронина, Нина Маслова, Егор Губарев, Андрей Попович-Описание: Два школьника решают исследовать таинственное окно, появляющееся на стене их дома в полночь во время полнолуния. Проникнув туда и оказавшись в тёмной комнате, они и не подозревают, какие приключения ждут их впереди…- -Качество видео: DVDRip
    Формат видео: AVI
    Видео: XviD, 656x352, 1207 kbps, 25 fps
    Аудио: MP3, 48000 Hz, 128 kbps, 2.0 ch-


    Резервные скриншоты



    Format : AVI
    Format/Info : Audio Video Interleave
    File size : 735 MiB
    Duration : 1h 16mn
    Overall bit rate : 1 344 Kbps
    Director : RG
    Writing application : VirtualDubMod (build 2540/release)
    Writing library : VirtualDubMod build 2540/release
    ID : 0
    Format : MPEG-4 Visual
    Format profile : Advanced Simple@L5
    Format settings, BVOP : 1
    Format settings, QPel : No
    Format settings, GMC : No warppoints
    Format settings, Matrix : Custom
    Codec ID : XVID
    Codec ID/Hint : XviD
    Duration : 1h 16mn
    Bit rate : 1 207 Kbps
    Width : 656 pixels
    Height : 352 pixels
    Display aspect ratio : 1.85:1
    Frame rate : 25.000 fps
    Color space : YUV
    Chroma subsampling : 4:2:0
    Bit depth : 8 bits
    Scan type : Progressive
    Compression mode : Lossy
    Bits/(Pixel*Frame) : 0.209
    Stream size : 660 MiB (90%)
    Writing library : XviD 73
    ID : 1
    Format : MPEG Audio
    Format version : Version 1
    Format profile : Layer 3
    Mode : Joint stereo
    Codec ID : 55
    Codec ID/Hint : MP3
    Duration : 1h 16mn
    Bit rate mode : Constant
    Bit rate : 128 Kbps
    Channel(s) : 2 channels
    Sampling rate : 48.0 KHz
    Compression mode : Lossy
    Stream size : 70.0 MiB (10%)
    Alignment : Aligned on interleaves
    Interleave, duration : 40 ms (1.00 video frame)
    Interleave, preload duration : 504 ms
    Download .torrent

    Download free and at maximum speed!

    How to Download? · What is a torrent? · Ratings and Limitations

    The site does not extend and does not store electronic(digital) versions of products, and only gives access to a reference catalogue created by users on torrent-files which contain only lists of the hash-sums, the earnest entreaty, with complaints(abuse) to access directly to the user. Files for an exchange on tracker are given by users of a site, and the administration does not bear the responsibility for their maintenance. The request to not fill in the files protected by copyrights, and also files of the illegal maintenance!

    [Profile] [PM]
    Display posts from previous:    
    Reply to topic

    The time now is: Today 13:53

    All times are GMT + 3 Hours

    You cannot post new topics in this forum
    You cannot reply to topics in this forum
    You cannot edit your posts in this forum
    You cannot delete your posts in this forum
    You cannot vote in polls in this forum
    You cannot attach files in this forum
    You cannot download files in this forum